  0
SECTION
  2
HEADER
  9
$ACADVER
  1
AC1015
  9
$ACADMAINTVER
 70
     6
  9
$DWGCODEPAGE
  3
ANSI_932
  9
$INSBASE
 10
0.0
 20
0.0
 30
0.0
  9
$EXTMIN
 10
14.48340432441279
 20
64.32402497324415
 30
0.0
  9
$EXTMAX
 10
215.915938962743
 20
173.8855256409343
 30
0.0
  9
$LIMMIN
 10
0.0
 20
0.0
  9
$LIMMAX
 10
297.0
 20
210.0
  9
$ORTHOMODE
 70
     0
  9
$REGENMODE
 70
     1
  9
$FILLMODE
 70
     1
  9
$QTEXTMODE
 70
     0
  9
$MIRRTEXT
 70
     1
  9
$LTSCALE
 40
0.25
  9
$ATTMODE
 70
     1
  9
$TEXTSIZE
 40
5.0
  9
$TRACEWID
 40
0.05
  9
$TEXTSTYLE
  7
Standard
  9
$CLAYER
  8
0
  9
$CELTYPE
  6
ByLayer
  9
$CECOLOR
 62
   256
  9
$CELTSCALE
 40
1.0
  9
$DISPSILH
 70
     0
  9
$DIMSCALE
 40
1.0
  9
$DIMASZ
 40
4.0
  9
$DIMEXO
 40
2.0
  9
$DIMDLI
 40
10.0
  9
$DIMRND
 40
0.0
  9
$DIMDLE
 40
0.0
  9
$DIMEXE
 40
2.0
  9
$DIMTP
 40
0.0
  9
$DIMTM
 40
0.0
  9
$DIMTXT
 40
3.5
  9
$DIMCEN
 40
0.09
  9
$DIMTSZ
 40
0.0
  9
$DIMTOL
 70
     0
  9
$DIMLIM
 70
     0
  9
$DIMTIH
 70
     0
  9
$DIMTOH
 70
     0
  9
$DIMSE1
 70
     0
  9
$DIMSE2
 70
     0
  9
$DIMTAD
 70
     3
  9
$DIMZIN
 70
     8
  9
$DIMBLK
  1

  9
$DIMASO
 70
     1
  9
$DIMSHO
 70
     1
  9
$DIMPOST
  1

  9
$DIMAPOST
  1

  9
$DIMALT
 70
     0
  9
$DIMALTD
 70
     2
  9
$DIMALTF
 40
25.4
  9
$DIMLFAC
 40
1.0
  9
$DIMTOFL
 70
     1
  9
$DIMTVP
 40
0.7
  9
$DIMTIX
 70
     0
  9
$DIMSOXD
 70
     0
  9
$DIMSAH
 70
     0
  9
$DIMBLK1
  1

  9
$DIMBLK2
  1

  9
$DIMSTYLE
  2
Standard
  9
$DIMCLRD
 70
     0
  9
$DIMCLRE
 70
     0
  9
$DIMCLRT
 70
     0
  9
$DIMTFAC
 40
0.5
  9
$DIMGAP
 40
0.09
  9
$DIMJUST
 70
     0
  9
$DIMSD1
 70
     0
  9
$DIMSD2
 70
     0
  9
$DIMTOLJ
 70
     1
  9
$DIMTZIN
 70
     8
  9
$DIMALTZ
 70
     0
  9
$DIMALTTZ
 70
     0
  9
$DIMUPT
 70
     1
  9
$DIMDEC
 70
     2
  9
$DIMTDEC
 70
     4
  9
$DIMALTU
 70
     2
  9
$DIMALTTD
 70
     2
  9
$DIMTXSTY
  7
Standard
  9
$DIMAUNIT
 70
     0
  9
$DIMADEC
 70
     0
  9
$DIMALTRND
 40
0.0
  9
$DIMAZIN
 70
     0
  9
$DIMDSEP
 70
    46
  9
$DIMATFIT
 70
     2
  9
$DIMFRAC
 70
     0
  9
$DIMLDRBLK
  1

  9
$DIMLUNIT
 70
     2
  9
$DIMLWD
 70
    -2
  9
$DIMLWE
 70
    -2
  9
$DIMTMOVE
 70
     2
  9
$LUNITS
 70
     2
  9
$LUPREC
 70
     4
  9
$SKETCHINC
 40
0.1
  9
$FILLETRAD
 40
0.5
  9
$AUNITS
 70
     0
  9
$AUPREC
 70
     0
  9
$MENU
  1
.
  9
$ELEVATION
 40
0.0
  9
$PELEVATION
 40
0.0
  9
$THICKNESS
 40
0.0
  9
$LIMCHECK
 70
     0
  9
$CHAMFERA
 40
0.5
  9
$CHAMFERB
 40
0.5
  9
$CHAMFERC
 40
1.0
  9
$CHAMFERD
 40
0.0
  9
$SKPOLY
 70
     0
  9
$TDCREATE
 40
2459378.096597222
  9
$TDUCREATE
 40
2459377.721597222
  9
$TDUPDATE
 40
2459377.72160397
  9
$TDUUPDATE
 40
2459377.34660397
  9
$TDINDWG
 40
0.0000000116
  9
$TDUSRTIMER
 40
0.0000000116
  9
$USRTIMER
 70
     1
  9
$ANGBASE
 50
0.0
  9
$ANGDIR
 70
     0
  9
$PDMODE
 70
     0
  9
$PDSIZE
 40
0.0
  9
$PLINEWID
 40
0.0
  9
$SPLFRAME
 70
     0
  9
$SPLINETYPE
 70
     6
  9
$SPLINESEGS
 70
     8
  9
$HANDSEED
  5
1D9
  9
$SURFTAB1
 70
     6
  9
$SURFTAB2
 70
     6
  9
$SURFTYPE
 70
     6
  9
$SURFU
 70
     6
  9
$SURFV
 70
     6
  9
$UCSBASE
  2

  9
$UCSNAME
  2

  9
$UCSORG
 10
0.0
 20
0.0
 30
0.0
  9
$UCSXDIR
 10
1.0
 20
0.0
 30
0.0
  9
$UCSYDIR
 10
0.0
 20
1.0
 30
0.0
  9
$UCSORTHOREF
  2

  9
$UCSORTHOVIEW
 70
     0
  9
$UCSORGTOP
 10
0.0
 20
0.0
 30
0.0
  9
$UCSORGBOTTOM
 10
0.0
 20
0.0
 30
0.0
  9
$UCSORGLEFT
 10
0.0
 20
0.0
 30
0.0
  9
$UCSORGRIGHT
 10
0.0
 20
0.0
 30
0.0
  9
$UCSORGFRONT
 10
0.0
 20
0.0
 30
0.0
  9
$UCSORGBACK
 10
0.0
 20
0.0
 30
0.0
  9
$PUCSBASE
  2

  9
$PUCSNAME
  2

  9
$PUCSORG
 10
0.0
 20
0.0
 30
0.0
  9
$PUCSXDIR
 10
1.0
 20
0.0
 30
0.0
  9
$PUCSYDIR
 10
0.0
 20
1.0
 30
0.0
  9
$PUCSORTHOREF
  2

  9
$PUCSORTHOVIEW
 70
     0
  9
$PUCSORGTOP
 10
0.0
 20
0.0
 30
0.0
  9
$PUCSORGBOTTOM
 10
0.0
 20
0.0
 30
0.0
  9
$PUCSORGLEFT
 10
0.0
 20
0.0
 30
0.0
  9
$PUCSORGRIGHT
 10
0.0
 20
0.0
 30
0.0
  9
$PUCSORGFRONT
 10
0.0
 20
0.0
 30
0.0
  9
$PUCSORGBACK
 10
0.0
 20
0.0
 30
0.0
  9
$USERI1
 70
     0
  9
$USERI2
 70
     0
  9
$USERI3
 70
     0
  9
$USERI4
 70
     0
  9
$USERI5
 70
     0
  9
$USERR1
 40
0.0
  9
$USERR2
 40
0.0
  9
$USERR3
 40
0.0
  9
$USERR4
 40
0.0
  9
$USERR5
 40
0.0
  9
$WORLDVIEW
 70
     1
  9
$SHADEDGE
 70
     3
  9
$SHADEDIF
 70
    70
  9
$TILEMODE
 70
     1
  9
$MAXACTVP
 70
    64
  9
$PINSBASE
 10
0.0
 20
0.0
 30
0.0
  9
$PLIMCHECK
 70
     0
  9
$PEXTMIN
 10
0.0
 20
0.0
 30
0.0
  9
$PEXTMAX
 10
297.0
 20
210.0
 30
0.0
  9
$PLIMMIN
 10
0.0
 20
0.0
  9
$PLIMMAX
 10
297.0
 20
210.0
  9
$UNITMODE
 70
     0
  9
$VISRETAIN
 70
     1
  9
$PLINEGEN
 70
     0
  9
$PSLTSCALE
 70
     1
  9
$TREEDEPTH
 70
  3020
  9
$CMLSTYLE
  2
Standard
  9
$CMLJUST
 70
     0
  9
$CMLSCALE
 40
1.0
  9
$PROXYGRAPHICS
 70
     1
  9
$MEASUREMENT
 70
     1
  9
$CELWEIGHT
370
    -1
  9
$ENDCAPS
280
     0
  9
$JOINSTYLE
280
     0
  9
$LWDISPLAY
290
     0
  9
$INSUNITS
 70
     4
  9
$HYPERLINKBASE
  1

  9
$STYLESHEET
  1

  9
$XEDIT
290
     1
  9
$CEPSNTYPE
380
     0
  9
$PSTYLEMODE
290
     1
  9
$FINGERPRINTGUID
  2
{2FEBABB3-12CB-4FEC-9F80-04C9385B756B}
  9
$VERSIONGUID
  2
{FAEB1C32-E019-11D5-929B-00C0DF256EC4}
  9
$EXTNAMES
290
     1
  9
$PSVPSCALE
 40
0.0
  9
$OLESTARTUP
290
     0
  0
ENDSEC
  0
SECTION
  2
CLASSES
  0
CLASS
  1
ACDBDICTIONARYWDFLT
  2
AcDbDictionaryWithDefault
  3
ObjectDBX Classes
 90
        0
280
     0
281
     0
  0
CLASS
  1
VISUALSTYLE
  2
AcDbVisualStyle
  3
ObjectDBX Classes
 90
     4095
280
     0
281
     0
  0
CLASS
  1
MATERIAL
  2
AcDbMaterial
  3
ObjectDBX Classes
 90
     1153
280
     0
281
     0
  0
CLASS
  1
DICTIONARYVAR
  2
AcDbDictionaryVar
  3
ObjectDBX Classes
 90
        0
280
     0
281
     0
  0
CLASS
  1
ACDBPLACEHOLDER
  2
AcDbPlaceHolder
  3
ObjectDBX Classes
 90
        0
280
     0
281
     0
  0
CLASS
  1
LAYOUT
  2
AcDbLayout
  3
ObjectDBX Classes
 90
        0
280
     0
281
     0
  0
ENDSEC
  0
SECTION
  2
TABLES
  0
TABLE
  2
VPORT
  5
8
330
0
100
AcDbSymbolTable
 70
     1
  0
VPORT
  5
29
330
8
100
AcDbSymbolTableRecord
100
AcDbViewportTableRecord
  2
*Active
 70
     0
 10
0.0
 20
0.0
 11
1.0
 21
1.0
 12
10.42990654205607
 22
4.5
 13
0.0
 23
0.0
 14
0.5
 24
0.5
 15
0.5
 25
0.5
 16
0.0
 26
0.0
 36
1.0
 17
0.0
 27
0.0
 37
0.0
 40
9.0
 41
1.972972972850329
 42
50.0
 43
0.0
 44
0.0
 50
0.0
 51
0.0
 71
     0
 72
   100
 73
     1
 74
     3
 75
     0
 76
     0
 77
     0
 78
     0
281
     0
 65
     1
110
0.0
120
0.0
130
0.0
111
1.0
121
0.0
131
0.0
112
0.0
122
1.0
132
0.0
 79
     0
146
0.0
  0
ENDTAB
  0
TABLE
  2
LTYPE
  5
5
330
0
100
AcDbSymbolTable
 70
     9
  0
LTYPE
  5
14
330
5
100
AcDbSymbolTableRecord
100
AcDbLinetypeTableRecord
  2
ByBlock
 70
     0
  3

 72
    65
 73
     0
 40
0.0
  0
LTYPE
  5
15
330
5
100
AcDbSymbolTableRecord
100
AcDbLinetypeTableRecord
  2
ByLayer
 70
     0
  3

 72
    65
 73
     0
 40
0.0
  0
LTYPE
  5
16
330
5
100
AcDbSymbolTableRecord
100
AcDbLinetypeTableRecord
  2
Continuous
 70
     0
  3
Solid line
 72
    65
 73
     0
 40
0.0
  0
LTYPE
  5
8E
330
5
100
AcDbSymbolTableRecord
100
AcDbLinetypeTableRecord
  2
DOT
 70
     0
  3
DOT
 72
    65
 73
     2
 40
4.0
 49
6.0
 74
     0
 49
-2.0
 74
     0
  0
LTYPE
  5
8F
330
5
100
AcDbSymbolTableRecord
100
AcDbLinetypeTableRecord
  2
HIDDEN
 70
     0
  3
HIDDEN
 72
    65
 73
     2
 40
4.2
 49
8.4
 74
     0
 49
-4.2
 74
     0
  0
LTYPE
  5
90
330
5
100
AcDbSymbolTableRecord
100
AcDbLinetypeTableRecord
  2
DASHDOT
 70
     0
  3
DASHDOT
 72
    65
 73
     4
 40
14.5
 49
30.0
 74
     0
 49
-9.0
 74
     0
 49
2.5
 74
     0
 49
-9.0
 74
     0
  0
LTYPE
  5
91
330
5
100
AcDbSymbolTableRecord
100
AcDbLinetypeTableRecord
  2
PHANTOM
 70
     0
  3
PHANTOM
 72
    65
 73
     6
 40
12.0
 49
30.0
 74
     0
 49
-9.0
 74
     0
 49
2.5
 74
     0
 49
-5.0
 74
     0
 49
2.5
 74
     0
 49
-9.0
 74
     0
  0
LTYPE
  5
92
330
5
100
AcDbSymbolTableRecord
100
AcDbLinetypeTableRecord
  2
ACAD_ISO14W100
 70
     0
  3
ACAD_ISO14W100
 72
    65
 73
     8
 40
1.5
 49
12.0
 74
     0
 49
-3.0
 74
     0
 49
0.5
 74
     0
 49
-3.0
 74
     0
 49
0.5
 74
     0
 49
-3.0
 74
     0
 49
0.5
 74
     0
 49
-3.0
 74
     0
  0
LTYPE
  5
93
330
5
100
AcDbSymbolTableRecord
100
AcDbLinetypeTableRecord
  2
ACAD_ISO06W100
 70
     0
  3
ACAD_ISO06W100
 72
    65
 73
     8
 40
13.5
 49
24.0
 74
     0
 49
-3.0
 74
     0
 49
0.5
 74
     0
 49
-3.0
 74
     0
 49
0.5
 74
     0
 49
-3.0
 74
     0
 49
0.5
 74
     0
 49
-3.0
 74
     0
  0
LTYPE
  5
94
330
5
100
AcDbSymbolTableRecord
100
AcDbLinetypeTableRecord
  2
ACAD_ISO11W100
 70
     0
  3
ACAD_ISO11W100
 72
    65
 73
     6
 40
15.5
 49
12.0
 74
     0
 49
-3.0
 74
     0
 49
12.0
 74
     0
 49
-3.0
 74
     0
 49
0.5
 74
     0
 49
-3.0
 74
     0
  0
LTYPE
  5
95
330
5
100
AcDbSymbolTableRecord
100
AcDbLinetypeTableRecord
  2
ACAD_ISO13W100
 70
     0
  3
ACAD_ISO13W100
 72
    65
 73
     8
 40
13.0
 49
12.0
 74
     0
 49
-3.0
 74
     0
 49
12.0
 74
     0
 49
-3.0
 74
     0
 49
0.5
 74
     0
 49
-3.0
 74
     0
 49
0.5
 74
     0
 49
-3.0
 74
     0
  0
ENDTAB
  0
TABLE
  2
LAYER
  5
2
330
0
100
AcDbSymbolTable
 70
    47
  0
LAYER
  5
10
330
2
100
AcDbSymbolTableRecord
100
AcDbLayerTableRecord
  2
0
 70
     0
 62
     7
  6
Continuous
370
    -3
390
F
  0
LAYER
  5
96
330
2
100
AcDbSymbolTableRecord
100
AcDbLayerTableRecord
  2
1
 70
     0
 62
     7
  6
Continuous
370
     9
390
F
  0
LAYER
  5
97
330
2
100
AcDbSymbolTableRecord
100
AcDbLayerTableRecord
  2
2
 70
     0
 62
   134
  6
Continuous
370
     9
390
F
  0
LAYER
  5
98
330
2
100
AcDbSymbolTableRecord
100
AcDbLayerTableRecord
  2
3
 70
     0
 62
   214
  6
Continuous
370
     9
390
F
  0
LAYER
  5
99
330
2
100
AcDbSymbolTableRecord
100
AcDbLayerTableRecord
  2
4
 70
     0
 62
    54
  6
Continuous
370
     9
390
F
  0
LAYER
  5
9A
330
2
100
AcDbSymbolTableRecord
100
AcDbLayerTableRecord
  2
5
 70
     0
 62
    94
  6
Continuous
370
     9
390
F
  0
LAYER
  5
9B
330
2
100
AcDbSymbolTableRecord
100
AcDbLayerTableRecord
  2
6
 70
     0
 62
    14
  6
Continuous
370
     9
390
F
  0
LAYER
  5
9C
330
2
100
AcDbSymbolTableRecord
100
AcDbLayerTableRecord
  2
7
 70
     0
 62
     4
  6
Continuous
370
     9
390
F
  0
LAYER
  5
9D
330
2
100
AcDbSymbolTableRecord
100
AcDbLayerTableRecord
  2
8
 70
     0
 62
     6
  6
Continuous
370
     9
390
F
  0
LAYER
  5
9E
330
2
100
AcDbSymbolTableRecord
100
AcDbLayerTableRecord
  2
9
 70
     0
 62
     2
  6
Continuous
370
     9
390
F
  0
LAYER
  5
9F
330
2
100
AcDbSymbolTableRecord
100
AcDbLayerTableRecord
  2
10
 70
     0
 62
     3
  6
Continuous
370
     9
390
F
  0
LAYER
  5
A0
330
2
100
AcDbSymbolTableRecord
100
AcDbLayerTableRecord
  2
11
 70
     0
 62
   251
  6
Continuous
370
     9
390
F
  0
LAYER
  5
A1
330
2
100
AcDbSymbolTableRecord
100
AcDbLayerTableRecord
  2
12
 70
     0
 62
   136
  6
Continuous
370
     9
390
F
  0
LAYER
  5
A2
330
2
100
AcDbSymbolTableRecord
100
AcDbLayerTableRecord
  2
13
 70
     0
 62
   216
  6
Continuous
370
     9
390
F
  0
LAYER
  5
A3
330
2
100
AcDbSymbolTableRecord
100
AcDbLayerTableRecord
  2
14
 70
     0
 62
    56
  6
Continuous
370
     9
390
F
  0
LAYER
  5
A4
330
2
100
AcDbSymbolTableRecord
100
AcDbLayerTableRecord
  2
15
 70
     0
 62
    96
  6
Continuous
370
     9
390
F
  0
LAYER
  5
A5
330
2
100
AcDbSymbolTableRecord
100
AcDbLayerTableRecord
  2
16
 70
     0
 62
    16
  6
Continuous
370
     9
390
F
  0
LAYER
  5
A6
330
2
100
AcDbSymbolTableRecord
100
AcDbLayerTableRecord
  2
17
 70
     0
 62
   132
  6
Continuous
370
     9
390
F
  0
LAYER
  5
A7
330
2
100
AcDbSymbolTableRecord
100
AcDbLayerTableRecord
  2
18
 70
     0
 62
   212
  6
Continuous
370
     9
390
F
  0
LAYER
  5
A8
330
2
100
AcDbSymbolTableRecord
100
AcDbLayerTableRecord
  2
19
 70
     0
 62
    52
  6
Continuous
370
     9
390
F
  0
LAYER
  5
A9
330
2
100
AcDbSymbolTableRecord
100
AcDbLayerTableRecord
  2
20
 70
     0
 62
   250
  6
Continuous
370
     9
390
F
  0
LAYER
  5
AA
330
2
100
AcDbSymbolTableRecord
100
AcDbLayerTableRecord
  2
21
 70
     0
 62
     7
  6
Continuous
370
     9
390
F
  0
LAYER
  5
AB
330
2
100
AcDbSymbolTableRecord
100
AcDbLayerTableRecord
  2
22
 70
     0
 62
     7
  6
Continuous
370
     9
390
F
  0
LAYER
  5
AC
330
2
100
AcDbSymbolTableRecord
100
AcDbLayerTableRecord
  2
23
 70
     0
 62
     5
  6
Continuous
370
     9
390
F
  0
LAYER
  5
AD
330
2
100
AcDbSymbolTableRecord
100
AcDbLayerTableRecord
  2
24
 70
     0
 62
   104
  6
Continuous
370
     9
390
F
  0
LAYER
  5
AE
330
2
100
AcDbSymbolTableRecord
100
AcDbLayerTableRecord
  2
25
 70
     0
 62
     7
  6
Continuous
370
     9
390
F
  0
LAYER
  5
AF
330
2
100
AcDbSymbolTableRecord
100
AcDbLayerTableRecord
  2
26
 70
     0
 62
     1
  6
Continuous
370
     9
390
F
  0
LAYER
  5
B0
330
2
100
AcDbSymbolTableRecord
100
AcDbLayerTableRecord
  2
27
 70
     0
 62
    12
  6
Continuous
370
     9
390
F
  0
LAYER
  5
B1
330
2
100
AcDbSymbolTableRecord
100
AcDbLayerTableRecord
  2
28
 70
     0
 62
   104
  6
Continuous
370
     9
390
F
  0
LAYER
  5
B2
330
2
100
AcDbSymbolTableRecord
100
AcDbLayerTableRecord
  2
29
 70
     0
 62
     5
  6
Continuous
370
     9
390
F
  0
LAYER
  5
B3
330
2
100
AcDbSymbolTableRecord
100
AcDbLayerTableRecord
  2
1111
 70
     0
 62
     7
  6
Continuous
370
     9
390
F
  0
LAYER
  5
B4
330
2
100
AcDbSymbolTableRecord
100
AcDbLayerTableRecord
  2
1112
 70
     0
 62
     7
  6
Continuous
370
     9
390
F
  0
LAYER
  5
B5
330
2
100
AcDbSymbolTableRecord
100
AcDbLayerTableRecord
  2
1221
 70
     0
 62
     7
  6
Continuous
370
     9
390
F
  0
LAYER
  5
B6
330
2
100
AcDbSymbolTableRecord
100
AcDbLayerTableRecord
  2
1223
 70
     0
 62
     7
  6
Continuous
370
     9
390
F
  0
LAYER
  5
B7
330
2
100
AcDbSymbolTableRecord
100
AcDbLayerTableRecord
  2
1311
 70
     0
 62
     5
  6
Continuous
370
     9
390
F
  0
LAYER
  5
B8
330
2
100
AcDbSymbolTableRecord
100
AcDbLayerTableRecord
  2
1312
 70
     0
 62
     7
  6
Continuous
370
     9
390
F
  0
LAYER
  5
B9
330
2
100
AcDbSymbolTableRecord
100
AcDbLayerTableRecord
  2
1313
 70
     0
 62
     5
  6
Continuous
370
     9
390
F
  0
LAYER
  5
BA
330
2
100
AcDbSymbolTableRecord
100
AcDbLayerTableRecord
  2
1314
 70
     0
 62
     7
  6
Continuous
370
     9
390
F
  0
LAYER
  5
BB
330
2
100
AcDbSymbolTableRecord
100
AcDbLayerTableRecord
  2
1414
 70
     0
 62
   158
  6
Continuous
370
     9
390
F
  0
LAYER
  5
BC
330
2
100
AcDbSymbolTableRecord
100
AcDbLayerTableRecord
  2
1438
 70
     0
 62
   158
  6
Continuous
370
     9
390
F
  0
LAYER
  5
BD
330
2
100
AcDbSymbolTableRecord
100
AcDbLayerTableRecord
  2
1511
 70
     0
 62
     7
  6
Continuous
370
     9
390
F
  0
LAYER
  5
BE
330
2
100
AcDbSymbolTableRecord
100
AcDbLayerTableRecord
  2
2211
 70
     0
 62
     7
  6
Continuous
370
     9
390
F
  0
LAYER
  5
BF
330
2
100
AcDbSymbolTableRecord
100
AcDbLayerTableRecord
  2
2224
 70
     0
 62
     7
  6
Continuous
370
     9
390
F
  0
LAYER
  5
C0
330
2
100
AcDbSymbolTableRecord
100
AcDbLayerTableRecord
  2
2411
 70
     0
 62
     7
  6
Continuous
370
     9
390
F
  0
LAYER
  5
C1
330
2
100
AcDbSymbolTableRecord
100
AcDbLayerTableRecord
  2
2412
 70
     0
 62
     7
  6
Continuous
370
     9
390
F
  0
LAYER
  5
C2
330
2
100
AcDbSymbolTableRecord
100
AcDbLayerTableRecord
  2
2413
 70
     0
 62
     5
  6
Continuous
370
     9
390
F
  0
LAYER
  5
C3
330
2
100
AcDbSymbolTableRecord
100
AcDbLayerTableRecord
  2
8110
 70
     0
 62
   251
  6
Continuous
370
     9
390
F
  0
ENDTAB
  0
TABLE
  2
STYLE
  5
3
330
0
100
AcDbSymbolTable
 70
     3
  0
STYLE
  5
11
330
3
100
AcDbSymbolTableRecord
100
AcDbTextStyleTableRecord
  2
Standard
 70
     0
 40
0.0
 41
1.0
 50
0.0
 71
     0
 42
5.0
  3
txt
  4
bigfont
  0
STYLE
  5
41
330
3
100
AcDbSymbolTableRecord
100
AcDbTextStyleTableRecord
  2
T_STANDARD
 70
     4
 40
10.0
 41
1.0
 50
0.0
 71
     0
 42
10.0
  3
txt
  4
bigfont
  0
STYLE
  5
133
330
3
100
AcDbSymbolTableRecord
100
AcDbTextStyleTableRecord
  2
ＭＳ ゴシック
 70
     0
 40
0.0
 41
1.0
 50
0.0
 71
     0
 42
0.0
  3

  4

1001
ACAD
1000
ＭＳ ゴシック
1071
      256
  0
ENDTAB
  0
TABLE
  2
VIEW
  5
6
330
0
100
AcDbSymbolTable
 70
     0
  0
ENDTAB
  0
TABLE
  2
UCS
  5
7
330
0
100
AcDbSymbolTable
 70
     0
  0
ENDTAB
  0
TABLE
  2
APPID
  5
9
330
0
100
AcDbSymbolTable
 70
     2
  0
APPID
  5
12
330
9
100
AcDbSymbolTableRecord
100
AcDbRegAppTableRecord
  2
ACAD
 70
     0
  0
APPID
  5
40
330
9
100
AcDbSymbolTableRecord
100
AcDbRegAppTableRecord
  2
ODA
 70
     0
  0
ENDTAB
  0
TABLE
  2
DIMSTYLE
  5
A
330
0
100
AcDbSymbolTable
 70
     1
100
AcDbDimStyleTable
  0
DIMSTYLE
105
27
102
{ACAD_REACTORS
330
13D
330
147
330
151
330
15B
330
165
330
16F
330
179
330
183
330
18D
330
197
330
1A1
330
1A9
102
}
330
A
100
AcDbSymbolTableRecord
100
AcDbDimStyleTableRecord
  2
Standard
 70
     0
178
     0
340
11
  0
ENDTAB
  0
TABLE
  2
BLOCK_RECORD
  5
1
330
0
100
AcDbSymbolTable
 70
    30
  0
BLOCK_RECORD
  5
1F
330
1
100
AcDbSymbolTableRecord
100
AcDbBlockTableRecord
  2
*Model_Space
340
22
  0
BLOCK_RECORD
  5
1B
330
1
100
AcDbSymbolTableRecord
100
AcDbBlockTableRecord
  2
*Paper_Space
340
1E
  0
BLOCK_RECORD
  5
23
330
1
100
AcDbSymbolTableRecord
100
AcDbBlockTableRecord
  2
*Paper_Space0
340
26
  0
BLOCK_RECORD
  5
42
330
1
100
AcDbSymbolTableRecord
100
AcDbBlockTableRecord
  2
_ORIGIN
340
0
  0
BLOCK_RECORD
  5
47
330
1
100
AcDbSymbolTableRecord
100
AcDbBlockTableRecord
  2
_DOTBLANK
340
0
  0
BLOCK_RECORD
  5
4C
330
1
100
AcDbSymbolTableRecord
100
AcDbBlockTableRecord
  2
_DOT
340
0
  0
BLOCK_RECORD
  5
51
330
1
100
AcDbSymbolTableRecord
100
AcDbBlockTableRecord
  2
_OPEN
340
0
102
{BLKREFS
331
13B
331
13C
331
145
331
146
331
14F
331
150
331
159
331
15A
331
163
331
164
331
16D
331
16E
331
177
331
178
331
181
331
182
331
18B
331
18C
331
195
331
196
331
19F
331
1A0
331
1A7
331
1A8
102
}
  0
BLOCK_RECORD
  5
57
330
1
100
AcDbSymbolTableRecord
100
AcDbBlockTableRecord
  2
_CLOSED
340
0
  0
BLOCK_RECORD
  5
5E
330
1
100
AcDbSymbolTableRecord
100
AcDbBlockTableRecord
  2
_CLOSEDBLANK
340
0
  0
BLOCK_RECORD
  5
64
330
1
100
AcDbSymbolTableRecord
100
AcDbBlockTableRecord
  2
_ARROWFILLED
340
0
  0
BLOCK_RECORD
  5
68
330
1
100
AcDbSymbolTableRecord
100
AcDbBlockTableRecord
  2
_BOXBLANK
340
0
  0
BLOCK_RECORD
  5
70
330
1
100
AcDbSymbolTableRecord
100
AcDbBlockTableRecord
  2
_BOXFILLED
340
0
  0
BLOCK_RECORD
  5
75
330
1
100
AcDbSymbolTableRecord
100
AcDbBlockTableRecord
  2
_INTEGRAL
340
0
  0
BLOCK_RECORD
  5
7A
330
1
100
AcDbSymbolTableRecord
100
AcDbBlockTableRecord
  2
_OBLIQUE
340
0
  0
BLOCK_RECORD
  5
7E
330
1
100
AcDbSymbolTableRecord
100
AcDbBlockTableRecord
  2
_NONE
340
0
  0
BLOCK_RECORD
  5
81
330
1
100
AcDbSymbolTableRecord
100
AcDbBlockTableRecord
  2
MARK_OPEN
340
0
  0
BLOCK_RECORD
  5
86
330
1
100
AcDbSymbolTableRecord
100
AcDbBlockTableRecord
  2
MARK_ORIGIN
340
0
  0
BLOCK_RECORD
  5
8A
330
1
100
AcDbSymbolTableRecord
100
AcDbBlockTableRecord
  2
MARK_DOT
340
0
  0
BLOCK_RECORD
  5
C9
330
1
100
AcDbSymbolTableRecord
100
AcDbBlockTableRecord
  2
*G16
340
0
102
{BLKREFS
331
CF
102
}
  0
BLOCK_RECORD
  5
D5
330
1
100
AcDbSymbolTableRecord
100
AcDbBlockTableRecord
  2
*G17
340
0
102
{BLKREFS
331
DB
102
}
  0
BLOCK_RECORD
  5
134
330
1
100
AcDbSymbolTableRecord
100
AcDbBlockTableRecord
  2
Dim1
340
0
  0
BLOCK_RECORD
  5
13E
330
1
100
AcDbSymbolTableRecord
100
AcDbBlockTableRecord
  2
Dim2
340
0
  0
BLOCK_RECORD
  5
148
330
1
100
AcDbSymbolTableRecord
100
AcDbBlockTableRecord
  2
Dim3
340
0
  0
BLOCK_RECORD
  5
152
330
1
100
AcDbSymbolTableRecord
100
AcDbBlockTableRecord
  2
Dim4
340
0
  0
BLOCK_RECORD
  5
15C
330
1
100
AcDbSymbolTableRecord
100
AcDbBlockTableRecord
  2
Dim5
340
0
  0
BLOCK_RECORD
  5
166
330
1
100
AcDbSymbolTableRecord
100
AcDbBlockTableRecord
  2
Dim6
340
0
  0
BLOCK_RECORD
  5
170
330
1
100
AcDbSymbolTableRecord
100
AcDbBlockTableRecord
  2
Dim7
340
0
  0
BLOCK_RECORD
  5
17A
330
1
100
AcDbSymbolTableRecord
100
AcDbBlockTableRecord
  2
Dim8
340
0
  0
BLOCK_RECORD
  5
184
330
1
100
AcDbSymbolTableRecord
100
AcDbBlockTableRecord
  2
Dim9
340
0
  0
BLOCK_RECORD
  5
18E
330
1
100
AcDbSymbolTableRecord
100
AcDbBlockTableRecord
  2
Dim10
340
0
  0
BLOCK_RECORD
  5
198
330
1
100
AcDbSymbolTableRecord
100
AcDbBlockTableRecord
  2
Dim11
340
0
  0
BLOCK_RECORD
  5
1A2
330
1
100
AcDbSymbolTableRecord
100
AcDbBlockTableRecord
  2
Dim12
340
0
  0
ENDTAB
  0
ENDSEC
  0
SECTION
  2
BLOCKS
  0
BLOCK
  5
20
330
1F
100
AcDbEntity
  8
0
100
AcDbBlockBegin
  2
*Model_Space
 70
     0
 10
0.0
 20
0.0
 30
0.0
  3
*Model_Space
  1

  0
ENDBLK
  5
21
330
1F
100
AcDbEntity
  8
0
100
AcDbBlockEnd
  0
BLOCK
  5
1C
330
1B
100
AcDbEntity
 67
     1
  8
0
100
AcDbBlockBegin
  2
*Paper_Space
 70
     0
 10
0.0
 20
0.0
 30
0.0
  3
*Paper_Space
  1

  0
ENDBLK
  5
1D
330
1B
100
AcDbEntity
 67
     1
  8
0
100
AcDbBlockEnd
  0
BLOCK
  5
24
330
23
100
AcDbEntity
  8
0
100
AcDbBlockBegin
  2
*Paper_Space0
 70
     0
 10
0.0
 20
0.0
 30
0.0
  3
*Paper_Space0
  1

  0
ENDBLK
  5
25
330
23
100
AcDbEntity
  8
0
100
AcDbBlockEnd
  0
BLOCK
  5
45
330
42
100
AcDbEntity
  8
0
100
AcDbBlockBegin
  2
_ORIGIN
 70
     0
 10
0.0
 20
0.0
 30
0.0
  3
_ORIGIN
  1

  0
CIRCLE
  5
43
330
42
100
AcDbEntity
  8
0
 62
     0
100
AcDbCircle
 10
0.0
 20
0.0
 30
0.0
 40
0.5
  0
LINE
  5
44
330
42
100
AcDbEntity
  8
0
 62
     0
100
AcDbLine
 10
0.0
 20
0.0
 30
0.0
 11
-1.0
 21
0.0
 31
0.0
  0
ENDBLK
  5
46
330
42
100
AcDbEntity
  8
0
100
AcDbBlockEnd
  0
BLOCK
  5
4A
330
47
100
AcDbEntity
  8
0
100
AcDbBlockBegin
  2
_DOTBLANK
 70
     0
 10
0.0
 20
0.0
 30
0.0
  3
_DOTBLANK
  1

  0
CIRCLE
  5
48
330
47
100
AcDbEntity
  8
0
 62
     0
100
AcDbCircle
 10
0.0
 20
0.0
 30
0.0
 40
0.5
  0
LINE
  5
49
330
47
100
AcDbEntity
  8
0
 62
     0
100
AcDbLine
 10
-0.5
 20
0.0
 30
0.0
 11
-1.0
 21
0.0
 31
0.0
  0
ENDBLK
  5
4B
330
47
100
AcDbEntity
  8
0
100
AcDbBlockEnd
  0
BLOCK
  5
4F
330
4C
100
AcDbEntity
  8
0
100
AcDbBlockBegin
  2
_DOT
 70
     0
 10
0.0
 20
0.0
 30
0.0
  3
_DOT
  1

  0
LWPOLYLINE
  5
4D
330
4C
100
AcDbEntity
  8
0
 62
     0
100
AcDbPolyline
 90
        2
 70
     1
 43
0.5
 10
-0.25
 20
0.0
 42
1.0
 10
0.25
 20
0.0
 42
1.0
  0
LINE
  5
4E
330
4C
100
AcDbEntity
  8
0
 62
     0
100
AcDbLine
 10
-0.5
 20
0.0
 30
0.0
 11
-1.0
 21
0.0
 31
0.0
  0
ENDBLK
  5
50
330
4C
100
AcDbEntity
  8
0
100
AcDbBlockEnd
  0
BLOCK
  5
55
330
51
100
AcDbEntity
  8
0
100
AcDbBlockBegin
  2
_OPEN
 70
     0
 10
0.0
 20
0.0
 30
0.0
  3
_OPEN
  1

  0
LINE
  5
52
330
51
100
AcDbEntity
  8
0
 62
     0
100
AcDbLine
 10
0.0
 20
0.0
 30
0.0
 11
-1.0
 21
0.1666666666666667
 31
0.0
  0
LINE
  5
53
330
51
100
AcDbEntity
  8
0
 62
     0
100
AcDbLine
 10
0.0
 20
0.0
 30
0.0
 11
-1.0
 21
-0.1666666666666667
 31
0.0
  0
LINE
  5
54
330
51
100
AcDbEntity
  8
0
 62
     0
100
AcDbLine
 10
0.0
 20
0.0
 30
0.0
 11
-1.0
 21
0.0
 31
0.0
  0
ENDBLK
  5
56
330
51
100
AcDbEntity
  8
0
100
AcDbBlockEnd
  0
BLOCK
  5
5C
330
57
100
AcDbEntity
  8
0
100
AcDbBlockBegin
  2
_CLOSED
 70
     0
 10
0.0
 20
0.0
 30
0.0
  3
_CLOSED
  1

  0
LINE
  5
58
330
57
100
AcDbEntity
  8
0
 62
     0
100
AcDbLine
 10
0.0
 20
0.0
 30
0.0
 11
-1.0
 21
0.1666666666666667
 31
0.0
  0
LINE
  5
59
330
57
100
AcDbEntity
  8
0
 62
     0
100
AcDbLine
 10
0.0
 20
0.0
 30
0.0
 11
-1.0
 21
-0.1666666666666667
 31
0.0
  0
LINE
  5
5A
330
57
100
AcDbEntity
  8
0
 62
     0
100
AcDbLine
 10
-1.0
 20
0.1666666666666667
 30
0.0
 11
-1.0
 21
-0.1666666666666667
 31
0.0
  0
LINE
  5
5B
330
57
100
AcDbEntity
  8
0
 62
     0
100
AcDbLine
 10
0.0
 20
0.0
 30
0.0
 11
-1.0
 21
0.0
 31
0.0
  0
ENDBLK
  5
5D
330
57
100
AcDbEntity
  8
0
100
AcDbBlockEnd
  0
BLOCK
  5
62
330
5E
100
AcDbEntity
  8
0
100
AcDbBlockBegin
  2
_CLOSEDBLANK
 70
     0
 10
0.0
 20
0.0
 30
0.0
  3
_CLOSEDBLANK
  1

  0
LINE
  5
5F
330
5E
100
AcDbEntity
  8
0
 62
     0
100
AcDbLine
 10
0.0
 20
0.0
 30
0.0
 11
-1.0
 21
0.1666666666666667
 31
0.0
  0
LINE
  5
60
330
5E
100
AcDbEntity
  8
0
 62
     0
100
AcDbLine
 10
0.0
 20
0.0
 30
0.0
 11
-1.0
 21
-0.1666666666666667
 31
0.0
  0
LINE
  5
61
330
5E
100
AcDbEntity
  8
0
 62
     0
100
AcDbLine
 10
-1.0
 20
0.1666666666666667
 30
0.0
 11
-1.0
 21
-0.1666666666666667
 31
0.0
  0
ENDBLK
  5
63
330
5E
100
AcDbEntity
  8
0
100
AcDbBlockEnd
  0
BLOCK
  5
66
330
64
100
AcDbEntity
  8
0
100
AcDbBlockBegin
  2
_ARROWFILLED
 70
     0
 10
0.0
 20
0.0
 30
0.0
  3
_ARROWFILLED
  1

  0
SOLID
  5
65
330
64
100
AcDbEntity
  8
0
 62
     0
100
AcDbTrace
 10
0.0
 20
0.0
 30
0.0
 11
-1.0
 21
-0.1666666666666667
 31
0.0
 12
-1.0
 22
0.1666666666666667
 32
0.0
 13
0.0
 23
0.0
 33
0.0
  0
ENDBLK
  5
67
330
64
100
AcDbEntity
  8
0
100
AcDbBlockEnd
  0
BLOCK
  5
6E
330
68
100
AcDbEntity
  8
0
100
AcDbBlockBegin
  2
_BOXBLANK
 70
     0
 10
0.0
 20
0.0
 30
0.0
  3
_BOXBLANK
  1

  0
LINE
  5
69
330
68
100
AcDbEntity
  8
0
 62
     0
100
AcDbLine
 10
-0.5
 20
-0.5
 30
0.0
 11
0.5
 21
-0.5
 31
0.0
  0
LINE
  5
6A
330
68
100
AcDbEntity
  8
0
 62
     0
100
AcDbLine
 10
0.5
 20
-0.5
 30
0.0
 11
0.5
 21
0.5
 31
0.0
  0
LINE
  5
6B
330
68
100
AcDbEntity
  8
0
 62
     0
100
AcDbLine
 10
0.5
 20
0.5
 30
0.0
 11
-0.5
 21
0.5
 31
0.0
  0
LINE
  5
6C
330
68
100
AcDbEntity
  8
0
 62
     0
100
AcDbLine
 10
-0.5
 20
0.5
 30
0.0
 11
-0.5
 21
-0.5
 31
0.0
  0
LINE
  5
6D
330
68
100
AcDbEntity
  8
0
 62
     0
100
AcDbLine
 10
-0.5
 20
0.0
 30
0.0
 11
-1.0
 21
0.0
 31
0.0
  0
ENDBLK
  5
6F
330
68
100
AcDbEntity
  8
0
100
AcDbBlockEnd
  0
BLOCK
  5
73
330
70
100
AcDbEntity
  8
0
100
AcDbBlockBegin
  2
_BOXFILLED
 70
     0
 10
0.0
 20
0.0
 30
0.0
  3
_BOXFILLED
  1

  0
SOLID
  5
71
330
70
100
AcDbEntity
  8
0
 62
     0
100
AcDbTrace
 10
-0.5
 20
0.5
 30
0.0
 11
0.5
 21
0.5
 31
0.0
 12
-0.5
 22
-0.5
 32
0.0
 13
0.5
 23
-0.5
 33
0.0
  0
LINE
  5
72
330
70
100
AcDbEntity
  8
0
 62
     0
100
AcDbLine
 10
-0.5
 20
0.0
 30
0.0
 11
-1.0
 21
0.0
 31
0.0
  0
ENDBLK
  5
74
330
70
100
AcDbEntity
  8
0
100
AcDbBlockEnd
  0
BLOCK
  5
78
330
75
100
AcDbEntity
  8
0
100
AcDbBlockBegin
  2
_INTEGRAL
 70
     0
 10
0.0
 20
0.0
 30
0.0
  3
_INTEGRAL
  1

  0
ARC
  5
76
330
75
100
AcDbEntity
  8
0
 62
     0
100
AcDbCircle
 10
0.444888
 20
-0.0913346
 30
0.0
 40
0.4541666
100
AcDbArc
 50
101.9999999999999
 51
167.9999999999998
  0
ARC
  5
77
330
75
100
AcDbEntity
  8
0
 62
     0
100
AcDbCircle
 10
-0.444888
 20
0.0913346
 30
0.0
 40
0.4541666
100
AcDbArc
 50
281.9999999999997
 51
347.9999999999997
  0
ENDBLK
  5
79
330
75
100
AcDbEntity
  8
0
100
AcDbBlockEnd
  0
BLOCK
  5
7C
330
7A
100
AcDbEntity
  8
0
100
AcDbBlockBegin
  2
_OBLIQUE
 70
     0
 10
0.0
 20
0.0
 30
0.0
  3
_OBLIQUE
  1

  0
LINE
  5
7B
330
7A
100
AcDbEntity
  8
0
 62
     0
100
AcDbLine
 10
-0.5
 20
-0.5
 30
0.0
 11
0.5
 21
0.5
 31
0.0
  0
ENDBLK
  5
7D
330
7A
100
AcDbEntity
  8
0
100
AcDbBlockEnd
  0
BLOCK
  5
7F
330
7E
100
AcDbEntity
  8
0
100
AcDbBlockBegin
  2
_NONE
 70
     0
 10
0.0
 20
0.0
 30
0.0
  3
_NONE
  1

  0
ENDBLK
  5
80
330
7E
100
AcDbEntity
  8
0
100
AcDbBlockEnd
  0
BLOCK
  5
84
330
81
100
AcDbEntity
  8
0
100
AcDbBlockBegin
  2
MARK_OPEN
 70
     0
 10
0.0
 20
0.0
 30
0.0
  3
MARK_OPEN
  1

  0
LINE
  5
82
330
81
100
AcDbEntity
  8
0
 62
     0
100
AcDbLine
 10
0.0
 20
0.0
 30
0.0
 11
-1.0
 21
0.1666666666666667
 31
0.0
  0
LINE
  5
83
330
81
100
AcDbEntity
  8
0
 62
     0
100
AcDbLine
 10
0.0
 20
0.0
 30
0.0
 11
-1.0
 21
-0.1666666666666667
 31
0.0
  0
ENDBLK
  5
85
330
81
100
AcDbEntity
  8
0
100
AcDbBlockEnd
  0
BLOCK
  5
88
330
86
100
AcDbEntity
  8
0
100
AcDbBlockBegin
  2
MARK_ORIGIN
 70
     0
 10
0.0
 20
0.0
 30
0.0
  3
MARK_ORIGIN
  1

  0
CIRCLE
  5
87
330
86
100
AcDbEntity
  8
0
 62
     0
100
AcDbCircle
 10
0.0
 20
0.0
 30
0.0
 40
0.5
  0
ENDBLK
  5
89
330
86
100
AcDbEntity
  8
0
100
AcDbBlockEnd
  0
BLOCK
  5
8C
330
8A
100
AcDbEntity
  8
0
100
AcDbBlockBegin
  2
MARK_DOT
 70
     0
 10
0.0
 20
0.0
 30
0.0
  3
MARK_DOT
  1

  0
LWPOLYLINE
  5
8B
330
8A
100
AcDbEntity
  8
0
 62
     0
100
AcDbPolyline
 90
        2
 70
     1
 43
0.5
 10
-0.25
 20
0.0
 42
1.0
 10
0.25
 20
0.0
 42
1.0
  0
ENDBLK
  5
8D
330
8A
100
AcDbEntity
  8
0
100
AcDbBlockEnd
  0
BLOCK
  5
CA
330
C9
100
AcDbEntity
  8
0
100
AcDbBlockBegin
  2
*G16
 70
     1
 10
0.0
 20
0.0
 30
0.0
  3
*G16
  1

  0
LINE
  5
CC
330
C9
100
AcDbEntity
  8
21
  6
Continuous
 62
     7
370
     9
100
AcDbLine
 10
180.1456074043029
 20
110.5676232310442
 30
0.0
 11
182.99368361791
 21
111.634610523136
 31
0.0
  0
LINE
  5
CD
330
C9
100
AcDbEntity
  8
21
  6
Continuous
 62
     7
370
     9
100
AcDbLine
 10
180.1456074043029
 20
110.5676232310442
 30
0.0
 11
182.4936836197392
 21
112.5006359279766
 31
0.0
  0
LINE
  5
CE
330
C9
100
AcDbEntity
  8
21
  6
Continuous
 62
     7
370
     9
100
AcDbLine
 10
180.1456074043029
 20
110.5676232310442
 30
0.0
 11
182.7436836188246
 21
112.0676232255563
 31
0.0
  0
ENDBLK
  5
CB
330
C9
100
AcDbEntity
  8
0
100
AcDbBlockEnd
  0
BLOCK
  5
D6
330
D5
100
AcDbEntity
  8
0
100
AcDbBlockBegin
  2
*G17
 70
     1
 10
0.0
 20
0.0
 30
0.0
  3
*G17
  1

  0
LINE
  5
D8
330
D5
100
AcDbEntity
  8
21
  6
Continuous
 62
     7
370
     9
100
AcDbLine
 10
184.6965565967953
 20
97.11762323097403
 30
0.0
 11
185.8750678987728
 21
95.46770740820543
 31
0.0
  0
LINE
  5
D9
330
D5
100
AcDbEntity
  8
21
  6
Continuous
 62
     7
370
     9
100
AcDbLine
 10
184.6965565967953
 20
97.11762323097403
 30
0.0
 11
186.3464724195639
 21
95.93911192899645
 31
0.0
  0
LINE
  5
DA
330
D5
100
AcDbEntity
  8
21
  6
Continuous
 62
     7
370
     9
100
AcDbLine
 10
184.6965565967953
 20
97.11762323097403
 30
0.0
 11
186.1107701591684
 21
95.70340966860093
 31
0.0
  0
ENDBLK
  5
D7
330
D5
100
AcDbEntity
  8
0
100
AcDbBlockEnd
  0
BLOCK
  5
135
330
134
100
AcDbEntity
  8
0
100
AcDbBlockBegin
  2
Dim1
 70
     0
 10
0.0
 20
0.0
 30
0.0
  3
Dim1
  1

  0
LINE
  5
137
330
134
100
AcDbEntity
  8
21
  6
Continuous
 62
     7
370
     9
100
AcDbLine
 10
51.13386888791248
 20
127.3509565643493
 30
0.0
 11
51.1338688879126
 21
153.0239373981431
 31
0.0
  0
LINE
  5
138
330
134
100
AcDbEntity
  8
21
  6
Continuous
 62
     7
370
     9
100
AcDbLine
 10
16.48174557568842
 20
115.6509565643493
 30
0.0
 11
16.48174557568859
 21
153.0239373981431
 31
0.0
  0
LINE
  5
139
330
134
100
AcDbEntity
  8
21
  6
Continuous
 62
     7
370
     9
100
AcDbLine
 10
51.1338688879126
 20
152.6906040648097
 30
0.0
 11
16.48174557568859
 21
152.6906040648097
 31
0.0
  0
MTEXT
  5
13A
330
134
100
AcDbEntity
  8
21
  6
Continuous
 62
     7
370
     9
100
AcDbMText
 10
30.37030723180041
 20
154.9406040648098
 30
0.0
 40
3.2
 41
32.336
 71
     5
 72
     1
  1
WD 111.8
  7
ＭＳ ゴシック
 73
     1
 44
1.0
1001
ACAD
1000
ACAD_MTEXT_DEFINED_HEIGHT_BEGIN
1070
    46
1040
3.2
1000
ACAD_MTEXT_DEFINED_HEIGHT_END
  0
INSERT
  5
13B
330
134
100
AcDbEntity
  8
21
  6
Continuous
 62
     7
370
     9
100
AcDbBlockReference
  2
_OPEN
 10
51.1338688879126
 20
152.6906040648097
 30
0.0
 41
3.2
 42
3.2
 43
3.2
 50
359.9999999999997
  0
INSERT
  5
13C
330
134
100
AcDbEntity
  8
21
  6
Continuous
 62
     7
370
     9
100
AcDbBlockReference
  2
_OPEN
 10
16.48174557568859
 20
152.6906040648097
 30
0.0
 41
3.2
 42
3.2
 43
3.2
 50
179.9999999999998
  0
ENDBLK
  5
136
330
134
100
AcDbEntity
  8
0
100
AcDbBlockEnd
  0
BLOCK
  5
13F
330
13E
100
AcDbEntity
  8
0
100
AcDbBlockBegin
  2
Dim2
 70
     0
 10
0.0
 20
0.0
 30
0.0
  3
Dim2
  1

  0
LINE
  5
141
330
13E
100
AcDbEntity
  8
21
  6
Continuous
 62
     7
370
     9
100
AcDbLine
 10
121.6338792395794
 20
98.65063392162007
 30
0.0
 11
121.6338792395793
 21
65.54184111814054
 31
0.0
  0
LINE
  5
142
330
13E
100
AcDbEntity
  8
21
  6
Continuous
 62
     7
370
     9
100
AcDbLine
 10
51.13386888791248
 20
92.35095656434943
 30
0.0
 11
51.13386888791237
 21
65.54184111814054
 31
0.0
  0
LINE
  5
143
330
13E
100
AcDbEntity
  8
21
  6
Continuous
 62
     7
370
     9
100
AcDbLine
 10
121.6338792395793
 20
65.8085077848072
 30
0.0
 11
51.13386888791237
 21
65.8085077848072
 31
0.0
  0
MTEXT
  5
144
330
13E
100
AcDbEntity
  8
21
  6
Continuous
 62
     7
370
     9
100
AcDbMText
 10
86.38387406374605
 20
67.85850778480739
 30
0.0
 40
3.2
 41
45.504
 71
     5
 72
     1
  1
70.5
  7
ＭＳ ゴシック
 73
     1
 44
1.0
1001
ACAD
1000
ACAD_MTEXT_DEFINED_HEIGHT_BEGIN
1070
    46
1040
3.2
1000
ACAD_MTEXT_DEFINED_HEIGHT_END
  0
INSERT
  5
145
330
13E
100
AcDbEntity
  8
21
  6
Continuous
 62
     7
370
     9
100
AcDbBlockReference
  2
_OPEN
 10
121.6338792395793
 20
65.8085077848072
 30
0.0
 41
3.2
 42
3.2
 43
3.2
 50
359.9999999999997
  0
INSERT
  5
146
330
13E
100
AcDbEntity
  8
21
  6
Continuous
 62
     7
370
     9
100
AcDbBlockReference
  2
_OPEN
 10
51.13386888791237
 20
65.8085077848072
 30
0.0
 41
3.2
 42
3.2
 43
3.2
 50
179.9999999999998
  0
ENDBLK
  5
140
330
13E
100
AcDbEntity
  8
0
100
AcDbBlockEnd
  0
BLOCK
  5
149
330
148
100
AcDbEntity
  8
0
100
AcDbBlockBegin
  2
Dim3
 70
     0
 10
0.0
 20
0.0
 30
0.0
  3
Dim3
  1

  0
LINE
  5
14B
330
148
100
AcDbEntity
  8
21
  6
Continuous
 62
     7
370
     9
100
AcDbLine
 10
146.6338792395796
 20
98.85095656435159
 30
0.0
 11
146.6338792395794
 21
65.53316438711967
 31
0.0
  0
LINE
  5
14C
330
148
100
AcDbEntity
  8
21
  6
Continuous
 62
     7
370
     9
100
AcDbLine
 10
121.6338792395794
 20
98.65063392162007
 30
0.0
 11
121.6338792395793
 21
65.53316438711967
 31
0.0
  0
LINE
  5
14D
330
148
100
AcDbEntity
  8
21
  6
Continuous
 62
     7
370
     9
100
AcDbLine
 10
146.6338792395794
 20
65.79983105378633
 30
0.0
 11
121.6338792395793
 21
65.79983105378633
 31
0.0
  0
MTEXT
  5
14E
330
148
100
AcDbEntity
  8
21
  6
Continuous
 62
     7
370
     9
100
AcDbMText
 10
134.1338792395796
 20
67.84983105378637
 30
0.0
 40
3.2
 41
27.008
 71
     5
 72
     1
  1
25
  7
ＭＳ ゴシック
 73
     1
 44
1.0
1001
ACAD
1000
ACAD_MTEXT_DEFINED_HEIGHT_BEGIN
1070
    46
1040
3.2
1000
ACAD_MTEXT_DEFINED_HEIGHT_END
  0
INSERT
  5
14F
330
148
100
AcDbEntity
  8
21
  6
Continuous
 62
     7
370
     9
100
AcDbBlockReference
  2
_OPEN
 10
146.6338792395794
 20
65.79983105378633
 30
0.0
 41
3.2
 42
3.2
 43
3.2
 50
359.9999999999997
  0
INSERT
  5
150
330
148
100
AcDbEntity
  8
21
  6
Continuous
 62
     7
370
     9
100
AcDbBlockReference
  2
_OPEN
 10
121.6338792395793
 20
65.79983105378633
 30
0.0
 41
3.2
 42
3.2
 43
3.2
 50
179.9999999999998
  0
ENDBLK
  5
14A
330
148
100
AcDbEntity
  8
0
100
AcDbBlockEnd
  0
BLOCK
  5
153
330
152
100
AcDbEntity
  8
0
100
AcDbBlockBegin
  2
Dim4
 70
     0
 10
0.0
 20
0.0
 30
0.0
  3
Dim4
  1

  0
LINE
  5
155
330
152
100
AcDbEntity
  8
21
  6
Continuous
 62
     7
370
     9
100
AcDbLine
 10
175.8465565967952
 20
95.35095656451155
 30
0.0
 11
175.8465565967951
 21
65.5339959369807
 31
0.0
  0
LINE
  5
156
330
152
100
AcDbEntity
  8
21
  6
Continuous
 62
     7
370
     9
100
AcDbLine
 10
146.6338792395793
 20
98.7509565643502
 30
0.0
 11
146.6338792395791
 21
65.5339959369807
 31
0.0
  0
LINE
  5
157
330
152
100
AcDbEntity
  8
21
  6
Continuous
 62
     7
370
     9
100
AcDbLine
 10
175.8465565967951
 20
65.80066260364737
 30
0.0
 11
146.6338792395791
 21
65.80066260364737
 31
0.0
  0
MTEXT
  5
158
330
152
100
AcDbEntity
  8
21
  6
Continuous
 62
     7
370
     9
100
AcDbMText
 10
161.2402179181873
 20
67.85066260364749
 30
0.0
 40
3.2
 41
48.336
 71
     5
 72
     1
  1
29.2
  7
ＭＳ ゴシック
 73
     1
 44
1.0
1001
ACAD
1000
ACAD_MTEXT_DEFINED_HEIGHT_BEGIN
1070
    46
1040
3.2
1000
ACAD_MTEXT_DEFINED_HEIGHT_END
  0
INSERT
  5
159
330
152
100
AcDbEntity
  8
21
  6
Continuous
 62
     7
370
     9
100
AcDbBlockReference
  2
_OPEN
 10
175.8465565967951
 20
65.80066260364737
 30
0.0
 41
3.2
 42
3.2
 43
3.2
 50
359.9999999999997
  0
INSERT
  5
15A
330
152
100
AcDbEntity
  8
21
  6
Continuous
 62
     7
370
     9
100
AcDbBlockReference
  2
_OPEN
 10
146.6338792395791
 20
65.80066260364737
 30
0.0
 41
3.2
 42
3.2
 43
3.2
 50
179.9999999999998
  0
ENDBLK
  5
154
330
152
100
AcDbEntity
  8
0
100
AcDbBlockEnd
  0
BLOCK
  5
15D
330
15C
100
AcDbEntity
  8
0
100
AcDbBlockBegin
  2
Dim5
 70
     0
 10
0.0
 20
0.0
 30
0.0
  3
Dim5
  1

  0
LINE
  5
15F
330
15C
100
AcDbEntity
  8
21
  6
Continuous
 62
     7
370
     9
100
AcDbLine
 10
182.3798899301286
 20
95.31762323117823
 30
0.0
 11
206.9201649233875
 21
95.31762323117815
 31
0.0
  0
LINE
  5
160
330
15C
100
AcDbEntity
  8
21
  6
Continuous
 62
     7
370
     9
100
AcDbLine
 10
182.3798899301286
 20
124.3176232312552
 30
0.0
 11
206.9201649233875
 21
124.3176232312551
 31
0.0
  0
LINE
  5
161
330
15C
100
AcDbEntity
  8
21
  6
Continuous
 62
     7
370
     9
100
AcDbLine
 10
206.5868315900541
 20
95.31762323117815
 30
0.0
 11
206.5868315900541
 21
124.3176232312551
 31
0.0
  0
MTEXT
  5
162
330
15C
100
AcDbEntity
  8
21
  6
Continuous
 62
     7
370
     9
100
AcDbMText
 10
204.8035315900542
 20
109.8176232312169
 30
0.0
 40
3.2
 41
39.216
 71
     5
 72
     1
  1
φ29
  7
ＭＳ ゴシック
 11
1.615544574432587E-15
 21
1.0
 31
0.0
 73
     1
 44
1.0
1001
ACAD
1000
ACAD_MTEXT_DEFINED_HEIGHT_BEGIN
1070
    46
1040
3.2
1000
ACAD_MTEXT_DEFINED_HEIGHT_END
  0
INSERT
  5
163
330
15C
100
AcDbEntity
  8
21
  6
Continuous
 62
     7
370
     9
100
AcDbBlockReference
  2
_OPEN
 10
206.5868315900541
 20
95.31762323117815
 30
0.0
 41
3.2
 42
3.2
 43
3.2
 50
269.9999999999998
  0
INSERT
  5
164
330
15C
100
AcDbEntity
  8
21
  6
Continuous
 62
     7
370
     9
100
AcDbBlockReference
  2
_OPEN
 10
206.5868315900541
 20
124.3176232312551
 30
0.0
 41
3.2
 42
3.2
 43
3.2
 50
89.99999999999991
  0
ENDBLK
  5
15E
330
15C
100
AcDbEntity
  8
0
100
AcDbBlockEnd
  0
BLOCK
  5
167
330
166
100
AcDbEntity
  8
0
100
AcDbBlockBegin
  2
Dim6
 70
     0
 10
0.0
 20
0.0
 30
0.0
  3
Dim6
  1

  0
LINE
  5
169
330
166
100
AcDbEntity
  8
21
  6
Continuous
 62
     7
370
     9
100
AcDbLine
 10
182.3468792395221
 20
124.6509565643495
 30
0.0
 11
182.3468792395222
 21
153.0081540453008
 31
0.0
  0
LINE
  5
16A
330
166
100
AcDbEntity
  8
21
  6
Continuous
 62
     7
370
     9
100
AcDbLine
 10
199.8728792395229
 20
115.6509565643496
 30
0.0
 11
199.872879239523
 21
153.0081540453008
 31
0.0
  0
LINE
  5
16B
330
166
100
AcDbEntity
  8
21
  6
Continuous
 62
     7
370
     9
100
AcDbLine
 10
182.3468792395222
 20
152.6748207119674
 30
0.0
 11
199.872879239523
 21
152.6748207119674
 31
0.0
  0
MTEXT
  5
16C
330
166
100
AcDbEntity
  8
21
  6
Continuous
 62
     7
370
     9
100
AcDbMText
 10
190.3898877649414
 20
154.9248207119674
 30
0.0
 40
3.2
 41
74.96000000000001
 71
     5
 72
     1
  1
17.526
  7
ＭＳ ゴシック
 73
     1
 44
1.0
1001
ACAD
1000
ACAD_MTEXT_DEFINED_HEIGHT_BEGIN
1070
    46
1040
3.2
1000
ACAD_MTEXT_DEFINED_HEIGHT_END
  0
INSERT
  5
16D
330
166
100
AcDbEntity
  8
21
  6
Continuous
 62
     7
370
     9
100
AcDbBlockReference
  2
_OPEN
 10
182.3468792395222
 20
152.6748207119674
 30
0.0
 41
3.2
 42
3.2
 43
3.2
 50
179.9999999999998
  0
INSERT
  5
16E
330
166
100
AcDbEntity
  8
21
  6
Continuous
 62
     7
370
     9
100
AcDbBlockReference
  2
_OPEN
 10
199.872879239523
 20
152.6748207119674
 30
0.0
 41
3.2
 42
3.2
 43
3.2
 50
359.9999999999997
  0
ENDBLK
  5
168
330
166
100
AcDbEntity
  8
0
100
AcDbBlockEnd
  0
BLOCK
  5
171
330
170
100
AcDbEntity
  8
0
100
AcDbBlockBegin
  2
Dim7
 70
     0
 10
0.0
 20
0.0
 30
0.0
  3
Dim7
  1

  0
LINE
  5
173
330
170
100
AcDbEntity
  8
21
  6
Continuous
 62
     7
370
     9
100
AcDbLine
 10
182.3468792395221
 20
126.6509565643485
 30
0.0
 11
182.3468792395222
 21
153.0193325790213
 31
0.0
  0
LINE
  5
174
330
170
100
AcDbEntity
  8
21
  6
Continuous
 62
     7
370
     9
100
AcDbLine
 10
51.13386888791248
 20
127.3509565643493
 30
0.0
 11
51.1338688879126
 21
153.0193325790213
 31
0.0
  0
LINE
  5
175
330
170
100
AcDbEntity
  8
21
  6
Continuous
 62
     7
370
     9
100
AcDbLine
 10
182.3468792395222
 20
152.685999245688
 30
0.0
 11
51.1338688879126
 21
152.685999245688
 31
0.0
  0
MTEXT
  5
176
330
170
100
AcDbEntity
  8
21
  6
Continuous
 62
     7
370
     9
100
AcDbMText
 10
116.6323740637172
 20
154.9359992456881
 30
0.0
 40
3.2
 41
78.096
 71
     5
 72
     1
  1
（131.2）
  7
ＭＳ ゴシック
 73
     1
 44
1.0
1001
ACAD
1000
ACAD_MTEXT_DEFINED_HEIGHT_BEGIN
1070
    46
1040
3.2
1000
ACAD_MTEXT_DEFINED_HEIGHT_END
  0
INSERT
  5
177
330
170
100
AcDbEntity
  8
21
  6
Continuous
 62
     7
370
     9
100
AcDbBlockReference
  2
_OPEN
 10
182.3468792395222
 20
152.685999245688
 30
0.0
 41
3.2
 42
3.2
 43
3.2
 50
359.9999999999997
  0
INSERT
  5
178
330
170
100
AcDbEntity
  8
21
  6
Continuous
 62
     7
370
     9
100
AcDbBlockReference
  2
_OPEN
 10
51.1338688879126
 20
152.685999245688
 30
0.0
 41
3.2
 42
3.2
 43
3.2
 50
179.9999999999998
  0
ENDBLK
  5
172
330
170
100
AcDbEntity
  8
0
100
AcDbBlockEnd
  0
BLOCK
  5
17B
330
17A
100
AcDbEntity
  8
0
100
AcDbBlockBegin
  2
Dim8
 70
     0
 10
0.0
 20
0.0
 30
0.0
  3
Dim8
  1

  0
LINE
  5
17D
330
17A
100
AcDbEntity
  8
21
  6
Continuous
 62
     7
370
     9
100
AcDbLine
 10
199.8728792395229
 20
115.6509565643496
 30
0.0
 11
199.8728792395231
 21
170.3688589742675
 31
0.0
  0
LINE
  5
17E
330
17A
100
AcDbEntity
  8
21
  6
Continuous
 62
     7
370
     9
100
AcDbLine
 10
16.48174557568842
 20
115.6509565643493
 30
0.0
 11
16.48174557568868
 21
170.3688589742675
 31
0.0
  0
LINE
  5
17F
330
17A
100
AcDbEntity
  8
21
  6
Continuous
 62
     7
370
     9
100
AcDbLine
 10
199.8728792395231
 20
170.0355256409342
 30
0.0
 11
16.48174557568868
 21
170.0355256409342
 31
0.0
  0
MTEXT
  5
180
330
17A
100
AcDbEntity
  8
21
  6
Continuous
 62
     7
370
     9
100
AcDbMText
 10
110.3007440924607
 20
172.2855256409343
 30
0.0
 40
3.2
 41
144.768
 71
     5
 72
     1
  1
（O/I=260.5）
  7
ＭＳ ゴシック
 73
     1
 44
1.0
1001
ACAD
1000
ACAD_MTEXT_DEFINED_HEIGHT_BEGIN
1070
    46
1040
3.2
1000
ACAD_MTEXT_DEFINED_HEIGHT_END
  0
INSERT
  5
181
330
17A
100
AcDbEntity
  8
21
  6
Continuous
 62
     7
370
     9
100
AcDbBlockReference
  2
_OPEN
 10
199.8728792395231
 20
170.0355256409342
 30
0.0
 41
3.2
 42
3.2
 43
3.2
 50
359.9999999999997
  0
INSERT
  5
182
330
17A
100
AcDbEntity
  8
21
  6
Continuous
 62
     7
370
     9
100
AcDbBlockReference
  2
_OPEN
 10
16.48174557568868
 20
170.0355256409342
 30
0.0
 41
3.2
 42
3.2
 43
3.2
 50
179.9999999999998
  0
ENDBLK
  5
17C
330
17A
100
AcDbEntity
  8
0
100
AcDbBlockEnd
  0
BLOCK
  5
185
330
184
100
AcDbEntity
  8
0
100
AcDbBlockBegin
  2
Dim9
 70
     0
 10
0.0
 20
0.0
 30
0.0
  3
Dim9
  1

  0
LINE
  5
187
330
184
100
AcDbEntity
  8
21
  6
Continuous
 62
     7
370
     9
100
AcDbLine
 10
186.3465565967952
 20
97.35095656430737
 30
0.0
 11
186.346556596795
 21
79.86111192654566
 31
0.0
  0
LINE
  5
188
330
184
100
AcDbEntity
  8
21
  6
Continuous
 62
     7
370
     9
100
AcDbLine
 10
182.3465565967952
 20
95.35095656451146
 30
0.0
 11
182.346556596795
 21
79.86111192654566
 31
0.0
  0
LINE
  5
189
330
184
100
AcDbEntity
  8
21
  6
Continuous
 62
     7
370
     9
100
AcDbLine
 10
191.15161095909
 20
80.12777859321233
 30
0.0
 11
180.6798899301284
 21
80.12777859321233
 31
0.0
  0
MTEXT
  5
18A
330
184
100
AcDbEntity
  8
21
  6
Continuous
 62
     7
370
     9
100
AcDbMText
 10
189.5516109590899
 20
82.27777859321233
 30
0.0
 40
3.2
 41
11.024
 71
     4
 72
     1
  1
4
  7
ＭＳ ゴシック
 73
     1
 44
1.0
1001
ACAD
1000
ACAD_MTEXT_DEFINED_HEIGHT_BEGIN
1070
    46
1040
3.2
1000
ACAD_MTEXT_DEFINED_HEIGHT_END
  0
INSERT
  5
18B
330
184
100
AcDbEntity
  8
21
  6
Continuous
 62
     7
370
     9
100
AcDbBlockReference
  2
_OPEN
 10
186.346556596795
 20
80.12777859321233
 30
0.0
 41
3.2
 42
3.2
 43
3.2
 50
179.9999999999995
  0
INSERT
  5
18C
330
184
100
AcDbEntity
  8
21
  6
Continuous
 62
     7
370
     9
100
AcDbBlockReference
  2
_OPEN
 10
182.346556596795
 20
80.12777859321233
 30
0.0
 41
3.2
 42
3.2
 43
3.2
 50
359.9999999999997
  0
ENDBLK
  5
186
330
184
100
AcDbEntity
  8
0
100
AcDbBlockEnd
  0
BLOCK
  5
18F
330
18E
100
AcDbEntity
  8
0
100
AcDbBlockBegin
  2
Dim10
 70
     0
 10
0.0
 20
0.0
 30
0.0
  3
Dim10
  1

  0
LINE
  5
191
330
18E
100
AcDbEntity
  8
21
  6
Continuous
 62
     7
370
     9
100
AcDbLine
 10
182.3465565967952
 20
95.35095656451146
 30
0.0
 11
182.3465565967949
 21
65.53399593698066
 31
0.0
  0
LINE
  5
192
330
18E
100
AcDbEntity
  8
21
  6
Continuous
 62
     7
370
     9
100
AcDbLine
 10
175.8465565967952
 20
95.35095656451155
 30
0.0
 11
175.8465565967949
 21
65.53399593698066
 31
0.0
  0
LINE
  5
193
330
18E
100
AcDbEntity
  8
21
  6
Continuous
 62
     7
370
     9
100
AcDbLine
 10
190.6493343745726
 20
65.80066260364732
 30
0.0
 11
175.8465565967949
 21
65.80066260364732
 31
0.0
  0
MTEXT
  5
194
330
18E
100
AcDbEntity
  8
21
  6
Continuous
 62
     7
370
     9
100
AcDbMText
 10
185.8493343745725
 20
67.85066260364736
 30
0.0
 40
3.2
 41
32.336
 71
     4
 72
     1
  1
6.5
  7
ＭＳ ゴシック
 73
     1
 44
1.0
1001
ACAD
1000
ACAD_MTEXT_DEFINED_HEIGHT_BEGIN
1070
    46
1040
3.2
1000
ACAD_MTEXT_DEFINED_HEIGHT_END
  0
INSERT
  5
195
330
18E
100
AcDbEntity
  8
21
  6
Continuous
 62
     7
370
     9
100
AcDbBlockReference
  2
_OPEN
 10
182.3465565967949
 20
65.80066260364732
 30
0.0
 41
3.2
 42
3.2
 43
3.2
 50
359.9999999999997
  0
INSERT
  5
196
330
18E
100
AcDbEntity
  8
21
  6
Continuous
 62
     7
370
     9
100
AcDbBlockReference
  2
_OPEN
 10
175.8465565967949
 20
65.80066260364732
 30
0.0
 41
3.2
 42
3.2
 43
3.2
 50
179.9999999999998
  0
ENDBLK
  5
190
330
18E
100
AcDbEntity
  8
0
100
AcDbBlockEnd
  0
BLOCK
  5
199
330
198
100
AcDbEntity
  8
0
100
AcDbBlockBegin
  2
Dim11
 70
     0
 10
0.0
 20
0.0
 30
0.0
  3
Dim11
  1

  0
LINE
  5
19B
330
198
100
AcDbEntity
  8
21
  6
Continuous
 62
     7
370
     9
100
AcDbLine
 10
51.16720222124577
 20
127.317623231016
 30
0.0
 11
34.38563183555586
 21
127.317623231016
 31
0.0
  0
LINE
  5
19C
330
198
100
AcDbEntity
  8
21
  6
Continuous
 62
     7
370
     9
100
AcDbLine
 10
51.16720222124589
 20
92.31762323101611
 30
0.0
 11
34.38563183555591
 21
92.31762323101611
 31
0.0
  0
LINE
  5
19D
330
198
100
AcDbEntity
  8
21
  6
Continuous
 62
     7
370
     9
100
AcDbLine
 10
34.65229850222252
 20
127.317623231016
 30
0.0
 11
34.65229850222258
 21
92.31762323101611
 31
0.0
  0
MTEXT
  5
19E
330
198
100
AcDbEntity
  8
21
  6
Continuous
 62
     7
370
     9
100
AcDbMText
 10
32.6858118617332
 20
117.7225909798445
 30
0.0
 40
3.2
 41
39.216
 71
     5
 72
     1
  1
\A1;φ35{\H0.5x;\S 0^  -0.1;}
  7
ＭＳ ゴシック
 11
7.273661547324616E-16
 21
1.0
 31
0.0
 73
     1
 44
1.0
1001
ACAD
1000
ACAD_MTEXT_DEFINED_HEIGHT_BEGIN
1070
    46
1040
3.2
1000
ACAD_MTEXT_DEFINED_HEIGHT_END
  0
INSERT
  5
19F
330
198
100
AcDbEntity
  8
21
  6
Continuous
 62
     7
370
     9
100
AcDbBlockReference
  2
_OPEN
 10
34.65229850222252
 20
127.317623231016
 30
0.0
 41
3.2
 42
3.2
 43
3.2
 50
89.99999999999991
  0
INSERT
  5
1A0
330
198
100
AcDbEntity
  8
21
  6
Continuous
 62
     7
370
     9
100
AcDbBlockReference
  2
_OPEN
 10
34.65229850222258
 20
92.31762323101611
 30
0.0
 41
3.2
 42
3.2
 43
3.2
 50
269.9999999999999
  0
ENDBLK
  5
19A
330
198
100
AcDbEntity
  8
0
100
AcDbBlockEnd
  0
BLOCK
  5
1A3
330
1A2
100
AcDbEntity
  8
0
100
AcDbBlockBegin
  2
Dim12
 70
     0
 10
0.0
 20
0.0
 30
0.0
  3
Dim12
  1

  0
LINE
  5
1A5
330
1A2
100
AcDbEntity
  8
21
  6
Continuous
 62
     7
370
     9
100
AcDbLine
 10
155.0354374307863
 20
98.81762323101623
 30
0.0
 11
155.0354374307863
 21
132.6229900332226
 31
0.0
  0
MTEXT
  5
1A6
330
1A2
100
AcDbEntity
  8
21
  6
Continuous
 62
     7
370
     9
100
AcDbMText
 10
151.8118540974531
 20
121.5829900332226
 30
0.0
 40
3.2
 41
39.216
 71
     4
 72
     1
  1
\A1;φ22{\H0.5x;\S 0^  -0.1;}
  7
ＭＳ ゴシック
 11
1.615544574432587E-15
 21
1.0
 31
0.0
 73
     1
 44
1.0
1001
ACAD
1000
ACAD_MTEXT_DEFINED_HEIGHT_BEGIN
1070
    46
1040
3.2
1000
ACAD_MTEXT_DEFINED_HEIGHT_END
  0
INSERT
  5
1A7
330
1A2
100
AcDbEntity
  8
21
  6
Continuous
 62
     7
370
     9
100
AcDbBlockReference
  2
_OPEN
 10
155.0354374307863
 20
98.81762323101623
 30
0.0
 41
3.2
 42
3.2
 43
3.2
 50
269.9999999999998
  0
INSERT
  5
1A8
330
1A2
100
AcDbEntity
  8
21
  6
Continuous
 62
     7
370
     9
100
AcDbBlockReference
  2
_OPEN
 10
155.0354374307863
 20
120.8176232310163
 30
0.0
 41
3.2
 42
3.2
 43
3.2
 50
89.99999999999991
  0
ENDBLK
  5
1A4
330
1A2
100
AcDbEntity
  8
0
100
AcDbBlockEnd
  0
ENDSEC
  0
SECTION
  2
ENTITIES
  0
POLYLINE
  5
C4
330
1F
100
AcDbEntity
  8
21
  6
Continuous
 62
     7
370
     9
100
AcDb2dPolyline
 66
     1
 10
0.0
 20
0.0
 30
0.0
  0
VERTEX
  5
C5
330
C4
100
AcDbEntity
  8
21
  6
Continuous
 62
     7
370
     9
100
AcDbVertex
100
AcDb2dVertex
 10
180.1456074043029
 20
110.5676232310442
 30
0.0
  0
VERTEX
  5
C6
330
C4
100
AcDbEntity
  8
21
  6
Continuous
 62
     7
370
     9
100
AcDbVertex
100
AcDb2dVertex
 10
215.915938962743
 20
131.2196336845691
 30
0.0
  0
VERTEX
  5
C7
330
C4
100
AcDbEntity
  8
21
  6
Continuous
 62
     7
370
     9
100
AcDbVertex
100
AcDb2dVertex
 10
215.915938962743
 20
131.2196337853117
 30
0.0
  0
SEQEND
  5
C8
330
C4
100
AcDbEntity
  8
21
  6
Continuous
 62
     7
370
     9
  0
INSERT
  5
CF
330
1F
100
AcDbEntity
  8
0
100
AcDbBlockReference
  2
*G16
 10
0.0
 20
0.0
 30
0.0
  0
POLYLINE
  5
D0
330
1F
100
AcDbEntity
  8
21
  6
Continuous
 62
     7
370
     9
100
AcDb2dPolyline
 66
     1
 10
0.0
 20
0.0
 30
0.0
  0
VERTEX
  5
D1
330
D0
100
AcDbEntity
  8
21
  6
Continuous
 62
     7
370
     9
100
AcDbVertex
100
AcDb2dVertex
 10
184.6965565967953
 20
97.11762323097403
 30
0.0
  0
VERTEX
  5
D2
330
D0
100
AcDbEntity
  8
21
  6
Continuous
 62
     7
370
     9
100
AcDbVertex
100
AcDb2dVertex
 10
200.5629676746336
 20
81.25121215313575
 30
0.0
  0
VERTEX
  5
D3
330
D0
100
AcDbEntity
  8
21
  6
Continuous
 62
     7
370
     9
100
AcDbVertex
100
AcDb2dVertex
 10
200.5629676746336
 20
64.32402497324415
 30
0.0
  0
SEQEND
  5
D4
330
D0
100
AcDbEntity
  8
21
  6
Continuous
 62
     7
370
     9
  0
INSERT
  5
DB
330
1F
100
AcDbEntity
  8
0
100
AcDbBlockReference
  2
*G17
 10
0.0
 20
0.0
 30
0.0
  0
POLYLINE
  5
DC
330
1F
100
AcDbEntity
  8
21
  6
Continuous
 62
     7
370
     9
100
AcDb2dPolyline
 66
     1
 10
0.0
 20
0.0
 30
0.0
  0
VERTEX
  5
DD
330
DC
100
AcDbEntity
  8
21
  6
Continuous
 62
     7
370
     9
100
AcDbVertex
100
AcDb2dVertex
 10
180.1456074043406
 20
110.5676232310659
 30
0.0
  0
VERTEX
  5
DE
330
DC
100
AcDbEntity
  8
21
  6
Continuous
 62
     7
370
     9
100
AcDbVertex
100
AcDb2dVertex
 10
215.915938962743
 20
131.2196337853117
 30
0.0
  0
SEQEND
  5
DF
330
DC
100
AcDbEntity
  8
21
  6
Continuous
 62
     7
370
     9
  0
POLYLINE
  5
E0
330
1F
100
AcDbEntity
  8
21
  6
Continuous
 62
     7
370
     9
100
AcDb2dPolyline
 66
     1
 10
0.0
 20
0.0
 30
0.0
  0
VERTEX
  5
E1
330
E0
100
AcDbEntity
  8
21
  6
Continuous
 62
     7
370
     9
100
AcDbVertex
100
AcDb2dVertex
 10
215.915938962743
 20
131.2196337853117
 30
0.0
  0
VERTEX
  5
E2
330
E0
100
AcDbEntity
  8
21
  6
Continuous
 62
     7
370
     9
100
AcDbVertex
100
AcDb2dVertex
 10
215.9159389627429
 20
134.0696420574266
 30
0.0
  0
SEQEND
  5
E3
330
E0
100
AcDbEntity
  8
21
  6
Continuous
 62
     7
370
     9
  0
LINE
  5
E4
330
1F
100
AcDbEntity
  8
21
  6
Continuous
 62
     7
370
     9
100
AcDbLine
 10
115.1338792395794
 20
109.8176232310161
 30
0.0
 11
115.1338792395795
 21
92.31762323101631
 31
0.0
  0
LINE
  5
E5
330
1F
100
AcDbEntity
  8
21
  6
Continuous
 62
     7
370
     9
100
AcDbLine
 10
115.1338792395794
 20
109.8176232310161
 30
0.0
 11
115.1338792395794
 21
127.3176232310159
 31
0.0
  0
LINE
  5
E6
330
1F
100
AcDbEntity
  8
21
  6
Continuous
 62
     7
370
     9
100
AcDbLine
 10
112.1338792395709
 20
109.8176232310161
 30
0.0
 11
112.1338792395709
 21
92.5176232310173
 31
0.0
  0
LINE
  5
E7
330
1F
100
AcDbEntity
  8
21
  6
Continuous
 62
     7
370
     9
100
AcDbLine
 10
112.1338792395709
 20
109.8176232310161
 30
0.0
 11
112.1338792395709
 21
127.1176232310149
 31
0.0
  0
LINE
  5
E8
330
1F
100
AcDbEntity
  8
21
  6
Continuous
 62
     7
370
     9
100
AcDbLine
 10
121.6338792395794
 20
98.81762323101631
 30
0.0
 11
115.1338792395795
 21
92.31762323101631
 31
0.0
  0
LINE
  5
E9
330
1F
100
AcDbEntity
  8
21
  6
Continuous
 62
     7
370
     9
100
AcDbLine
 10
115.1338792395795
 20
92.31762323101631
 30
0.0
 11
112.3338792395718
 21
92.31762323101631
 31
0.0
  0
LINE
  5
EA
330
1F
100
AcDbEntity
  8
21
  6
Continuous
 62
     7
370
     9
100
AcDbLine
 10
112.1338792395709
 20
92.5176232310173
 30
0.0
 11
112.3338792395709
 21
92.31762323101731
 31
0.0
  0
LINE
  5
EB
330
1F
100
AcDbEntity
  8
21
  6
Continuous
 62
     7
370
     9
100
AcDbLine
 10
112.1338792395709
 20
127.1176232310149
 30
0.0
 11
112.3338792395708
 21
127.317623231015
 31
0.0
  0
LINE
  5
EC
330
1F
100
AcDbEntity
  8
21
  6
Continuous
 62
     7
370
     9
100
AcDbLine
 10
121.6338792395798
 20
109.8176232310161
 30
0.0
 11
121.6338792395794
 21
98.81762323101631
 31
0.0
  0
LINE
  5
ED
330
1F
100
AcDbEntity
  8
21
  6
Continuous
 62
     7
370
     9
100
AcDbLine
 10
121.6338792395796
 20
109.8176232310161
 30
0.0
 11
121.6338792395796
 21
120.8176232310159
 31
0.0
  0
LINE
  5
EE
330
1F
100
AcDbEntity
  8
21
  6
Continuous
 62
     7
370
     9
100
AcDbLine
 10
121.6338792395796
 20
120.8176232310159
 30
0.0
 11
115.1338792395794
 21
127.3176232310159
 31
0.0
  0
LINE
  5
EF
330
1F
100
AcDbEntity
  8
21
  6
Continuous
 62
     7
370
     9
100
AcDbLine
 10
115.1338792395794
 20
127.3176232310159
 30
0.0
 11
112.3338792395708
 21
127.317623231015
 31
0.0
  0
LINE
  5
F0
330
1F
100
AcDbEntity
  8
21
  6
Continuous
 62
     7
370
     9
100
AcDbLine
 10
112.1338792395709
 20
109.8176232310161
 30
0.0
 11
112.1338792395709
 21
127.117623231016
 31
0.0
  0
LINE
  5
F1
330
1F
100
AcDbEntity
  8
21
  6
Continuous
 62
     7
370
     9
100
AcDbLine
 10
51.13386888791254
 20
109.817623231016
 30
0.0
 11
51.13386888791248
 21
127.017623231016
 31
0.0
  0
LINE
  5
F2
330
1F
100
AcDbEntity
  8
21
  6
Continuous
 62
     7
370
     9
100
AcDbLine
 10
51.43386888791255
 20
92.31762323101611
 30
0.0
 11
111.9338792395709
 21
92.31762323101631
 31
0.0
  0
LINE
  5
F3
330
1F
100
AcDbEntity
  8
21
  6
Continuous
 62
     7
370
     9
100
AcDbLine
 10
111.9338792395709
 20
92.31762323101631
 30
0.0
 11
112.1338792395709
 21
92.5176232310163
 31
0.0
  0
LINE
  5
F4
330
1F
100
AcDbEntity
  8
21
  6
Continuous
 62
     7
370
     9
100
AcDbLine
 10
112.1338792395709
 20
109.8176232310161
 30
0.0
 11
112.1338792395709
 21
92.5176232310163
 31
0.0
  0
LINE
  5
F5
330
1F
100
AcDbEntity
  8
21
  6
Continuous
 62
     7
370
     9
100
AcDbLine
 10
51.43386888791255
 20
92.31762323101611
 30
0.0
 11
51.13386888791248
 21
92.6176232310161
 31
0.0
  0
LINE
  5
F6
330
1F
100
AcDbEntity
  8
21
  6
Continuous
 62
     7
370
     9
100
AcDbLine
 10
51.13386888791248
 20
109.817623231016
 30
0.0
 11
51.13386888791248
 21
92.6176232310161
 31
0.0
  0
LINE
  5
F7
330
1F
100
AcDbEntity
  8
21
  6
Continuous
 62
     7
370
     9
100
AcDbLine
 10
51.13386888791243
 20
127.017623231016
 30
0.0
 11
51.43386888791244
 21
127.317623231016
 31
0.0
  0
LINE
  5
F8
330
1F
100
AcDbEntity
  8
21
  6
Continuous
 62
     7
370
     9
100
AcDbLine
 10
112.1338792395709
 20
127.117623231016
 30
0.0
 11
111.9338792395708
 21
127.317623231016
 31
0.0
  0
LINE
  5
F9
330
1F
100
AcDbEntity
  8
21
  6
Continuous
 62
     7
370
     9
100
AcDbLine
 10
51.43386888791244
 20
127.317623231016
 30
0.0
 11
111.9338792395708
 21
127.317623231016
 31
0.0
  0
LINE
  5
FA
330
1F
100
AcDbEntity
  8
21
  6
Continuous
 62
     7
370
     9
100
AcDbLine
 10
146.6338792395793
 20
99.01762323101687
 30
0.0
 11
146.8338792395793
 21
98.81762323101685
 31
0.0
  0
LINE
  5
FB
330
1F
100
AcDbEntity
  8
21
  6
Continuous
 62
     7
370
     9
100
AcDbLine
 10
146.8338792395793
 20
120.8176232310167
 30
0.0
 11
146.6338792395792
 21
120.6176232310168
 31
0.0
  0
LINE
  5
FC
330
1F
100
AcDbEntity
  8
21
  6
Continuous
 62
     7
370
     9
100
AcDbLine
 10
175.8465565967952
 20
98.8176232310168
 30
0.0
 11
146.8338792395793
 21
98.81762323101685
 31
0.0
  0
LINE
  5
FD
330
1F
100
AcDbEntity
  8
21
  6
Continuous
 62
     7
370
     9
100
AcDbLine
 10
146.6338792395793
 20
99.01762323101687
 30
0.0
 11
146.6338792395796
 21
109.8176232310161
 31
0.0
  0
LINE
  5
FE
330
1F
100
AcDbEntity
  8
21
  6
Continuous
 62
     7
370
     9
100
AcDbLine
 10
146.6338792395792
 20
120.6176232310168
 30
0.0
 11
146.6338792395796
 21
109.8176232310161
 31
0.0
  0
LINE
  5
FF
330
1F
100
AcDbEntity
  8
21
  6
Continuous
 62
     7
370
     9
100
AcDbLine
 10
175.8465565967952
 20
120.8176232308658
 30
0.0
 11
146.8338792395793
 21
120.8176232310167
 31
0.0
  0
LINE
  5
100
330
1F
100
AcDbEntity
  8
21
  6
Continuous
 62
     7
370
     9
100
AcDbLine
 10
127.6335565968751
 20
98.81762323101313
 30
0.0
 11
121.7335565968524
 21
98.81762323101381
 31
0.0
  0
LINE
  5
101
330
1F
100
AcDbEntity
  8
21
  6
Continuous
 62
     7
370
     9
100
AcDbLine
 10
146.6338792395796
 20
99.11762323101135
 30
0.0
 11
146.3338792395795
 21
98.81762323101145
 31
0.0
  0
LINE
  5
102
330
1F
100
AcDbEntity
  8
21
  6
Continuous
 62
     7
370
     9
100
AcDbLine
 10
146.6338792395796
 20
99.11762323101826
 30
0.0
 11
146.6338792395796
 21
109.8176232310161
 31
0.0
  0
LINE
  5
103
330
1F
100
AcDbEntity
  8
21
  6
Continuous
 62
     7
370
     9
100
AcDbLine
 10
182.0465565967953
 20
95.31762323117823
 30
0.0
 11
182.3465565967952
 21
95.61762323117813
 31
0.0
  0
LINE
  5
104
330
1F
100
AcDbEntity
  8
21
  6
Continuous
 62
     7
370
     9
100
AcDbLine
 10
182.3465565967952
 20
97.61762323097403
 30
0.0
 11
183.5465565967953
 21
97.61762323097403
 31
0.0
  0
LINE
  5
105
330
1F
100
AcDbEntity
  8
21
  6
Continuous
 62
     7
370
     9
100
AcDbLine
 10
183.5465565967953
 20
97.11762323097403
 30
0.0
 11
183.5465565967953
 21
97.61762323097403
 31
0.0
  0
LINE
  5
106
330
1F
100
AcDbEntity
  8
21
  6
Continuous
 62
     7
370
     9
100
AcDbLine
 10
186.3465565967952
 20
97.61762323097403
 30
0.0
 11
183.5465565967953
 21
97.61762323097403
 31
0.0
  0
LINE
  5
107
330
1F
100
AcDbEntity
  8
21
  6
Continuous
 62
     7
370
     9
100
AcDbLine
 10
183.5465565967953
 20
97.11762323097403
 30
0.0
 11
185.8465565967952
 21
97.11762323097403
 31
0.0
  0
LINE
  5
108
330
1F
100
AcDbEntity
  8
21
  6
Continuous
 62
     7
370
     9
100
AcDbLine
 10
185.8465565967952
 20
97.11762323097403
 30
0.0
 11
186.3465565967952
 21
97.61762323097403
 31
0.0
  0
LINE
  5
109
330
1F
100
AcDbEntity
  8
21
  6
Continuous
 62
     7
370
     9
100
AcDbLine
 10
176.1465565967953
 20
95.3176232311782
 30
0.0
 11
175.8465565967952
 21
95.61762323117821
 31
0.0
  0
LINE
  5
10A
330
1F
100
AcDbEntity
  8
21
  6
Continuous
 62
     7
370
     9
100
AcDbLine
 10
176.1465565967953
 20
95.3176232311782
 30
0.0
 11
182.0465565967953
 21
95.31762323117823
 31
0.0
  0
LINE
  5
10B
330
1F
100
AcDbEntity
  8
21
  6
Continuous
 62
     7
370
     9
100
AcDbLine
 10
182.3465565967952
 20
122.0176232314594
 30
0.0
 11
183.5465565967952
 21
122.0176232314594
 31
0.0
  0
LINE
  5
10C
330
1F
100
AcDbEntity
  8
21
  6
Continuous
 62
     7
370
     9
100
AcDbLine
 10
183.5465565967952
 20
122.5176232314594
 30
0.0
 11
183.5465565967952
 21
122.0176232314594
 31
0.0
  0
LINE
  5
10D
330
1F
100
AcDbEntity
  8
21
  6
Continuous
 62
     7
370
     9
100
AcDbLine
 10
183.5465565967952
 20
122.5176232314594
 30
0.0
 11
185.8465565967952
 21
122.5176232314594
 31
0.0
  0
LINE
  5
10E
330
1F
100
AcDbEntity
  8
21
  6
Continuous
 62
     7
370
     9
100
AcDbLine
 10
186.3465565967952
 20
122.0176232314594
 30
0.0
 11
183.5465565967952
 21
122.0176232314594
 31
0.0
  0
LINE
  5
10F
330
1F
100
AcDbEntity
  8
21
  6
Continuous
 62
     7
370
     9
100
AcDbLine
 10
185.8465565967952
 20
122.5176232314594
 30
0.0
 11
186.3465565967952
 21
122.0176232314594
 31
0.0
  0
LINE
  5
110
330
1F
100
AcDbEntity
  8
21
  6
Continuous
 62
     7
370
     9
100
AcDbLine
 10
186.3465565967952
 20
122.0176232314594
 30
0.0
 11
186.3465565967952
 21
109.8176232309509
 31
0.0
  0
LINE
  5
111
330
1F
100
AcDbEntity
  8
21
  6
Continuous
 62
     7
370
     9
100
AcDbLine
 10
182.0465565967952
 20
124.3176232312552
 30
0.0
 11
182.3465565967952
 21
124.0176232312552
 31
0.0
  0
LINE
  5
112
330
1F
100
AcDbEntity
  8
21
  6
Continuous
 62
     7
370
     9
100
AcDbLine
 10
182.3465565967952
 20
109.8176232309426
 30
0.0
 11
182.3465565967952
 21
124.0176232312552
 31
0.0
  0
CIRCLE
  5
113
330
1F
100
AcDbEntity
  8
21
  6
Continuous
 62
     7
370
     9
100
AcDbCircle
 10
178.8465692986639
 20
109.817623230979
 30
0.0
 40
0.8660254037844197
  0
LINE
  5
114
330
1F
100
AcDbEntity
  8
21
  6
Continuous
 62
     7
370
     9
100
AcDbLine
 10
178.0965692986639
 20
110.2506359328711
 30
0.0
 11
178.0965692986639
 21
109.3846105290867
 31
0.0
  0
LINE
  5
115
330
1F
100
AcDbEntity
  8
21
  6
Continuous
 62
     7
370
     9
100
AcDbLine
 10
178.8465692986639
 20
110.6836486347634
 30
0.0
 11
178.0965692986639
 21
110.2506359328711
 31
0.0
  0
LINE
  5
116
330
1F
100
AcDbEntity
  8
21
  6
Continuous
 62
     7
370
     9
100
AcDbLine
 10
179.5965692986638
 20
110.2506359328711
 30
0.0
 11
178.8465692986639
 21
110.6836486347634
 31
0.0
  0
LINE
  5
117
330
1F
100
AcDbEntity
  8
21
  6
Continuous
 62
     7
370
     9
100
AcDbLine
 10
178.0965692986639
 20
109.3846105290867
 30
0.0
 11
178.8465692986639
 21
108.9515978271945
 31
0.0
  0
LINE
  5
118
330
1F
100
AcDbEntity
  8
21
  6
Continuous
 62
     7
370
     9
100
AcDbLine
 10
179.5965692986638
 20
109.3846105290867
 30
0.0
 11
179.5965692986638
 21
110.2506359328711
 31
0.0
  0
LINE
  5
119
330
1F
100
AcDbEntity
  8
21
  6
Continuous
 62
     7
370
     9
100
AcDbLine
 10
178.8465692986639
 20
108.9515978271945
 30
0.0
 11
179.5965692986638
 21
109.3846105290867
 31
0.0
  0
CIRCLE
  5
11A
330
1F
100
AcDbEntity
  8
21
  6
Continuous
 62
     7
370
     9
100
AcDbCircle
 10
178.8465692986639
 20
109.817623230979
 30
0.0
 40
1.5
  0
CIRCLE
  5
11B
330
1F
100
AcDbEntity
  8
21
  6
Continuous
 62
     7
370
     9
100
AcDbCircle
 10
178.8465692986639
 20
109.817623230979
 30
0.0
 40
1.228999999999985
  0
LINE
  5
11C
330
1F
100
AcDbEntity
  8
21
  6
DASHDOT
 62
     7
370
     9
100
AcDbLine
 10
178.8465692986638
 20
112.3176232309789
 30
0.0
 11
178.8465692986639
 21
107.3176232309789
 31
0.0
  0
LINE
  5
11D
330
1F
100
AcDbEntity
  8
21
  6
Continuous
 62
     7
370
     9
100
AcDbLine
 10
176.1465565967953
 20
124.3176232312552
 30
0.0
 11
175.8465565967952
 21
124.0176232312552
 31
0.0
  0
LINE
  5
11E
330
1F
100
AcDbEntity
  8
21
  6
Continuous
 62
     7
370
     9
100
AcDbLine
 10
175.8465565967952
 20
109.8176232309291
 30
0.0
 11
175.8465565967952
 21
124.0176232312552
 31
0.0
  0
LINE
  5
11F
330
1F
100
AcDbEntity
  8
21
  6
DASHDOT
 62
     7
370
     9
100
AcDbLine
 10
181.3465692986638
 20
109.817623230979
 30
0.0
 11
176.3465692986639
 21
109.817623230979
 31
0.0
  0
LINE
  5
120
330
1F
100
AcDbEntity
  8
21
  6
Continuous
 62
     7
370
     9
100
AcDbLine
 10
176.1465565967953
 20
124.3176232312552
 30
0.0
 11
182.0465565967952
 21
124.3176232312552
 31
0.0
  0
LINE
  5
121
330
1F
100
AcDbEntity
  8
21
  6
Continuous
 62
     7
370
     9
100
AcDbLine
 10
175.8465565967952
 20
109.8176232309291
 30
0.0
 11
175.8465565967952
 21
95.61762323117821
 31
0.0
  0
LINE
  5
122
330
1F
100
AcDbEntity
  8
21
  6
Continuous
 62
     7
370
     9
100
AcDbLine
 10
186.3465565967952
 20
97.61762323097403
 30
0.0
 11
186.3465565967952
 21
109.8176232309509
 31
0.0
  0
LINE
  5
123
330
1F
100
AcDbEntity
  8
21
  6
Continuous
 62
     7
370
     9
100
AcDbLine
 10
182.3465565967952
 20
109.8176232309426
 30
0.0
 11
182.3465565967952
 21
95.61762323117813
 31
0.0
  0
LINE
  5
124
330
1F
100
AcDbEntity
  8
21
  6
Continuous
 62
     7
370
     9
100
AcDbLine
 10
183.5465565967952
 20
122.0176232314594
 30
0.0
 11
183.5465565967953
 21
97.61762323097403
 31
0.0
  0
LINE
  5
125
330
1F
100
AcDbEntity
  8
21
  6
Continuous
 62
     7
370
     9
100
AcDbLine
 10
146.3338792395795
 20
98.81762323101145
 30
0.0
 11
127.6335565968751
 21
98.81762323101313
 31
0.0
  0
LINE
  5
126
330
1F
100
AcDbEntity
  8
21
  6
Continuous
 62
     7
370
     9
100
AcDbLine
 10
121.7335565968524
 20
98.81762323101381
 30
0.0
 11
121.6335565968523
 21
98.91762323101383
 31
0.0
  0
LINE
  5
127
330
1F
100
AcDbEntity
  8
21
  6
Continuous
 62
     7
370
     9
100
AcDbLine
 10
199.872879239523
 20
104.3176232310161
 30
0.0
 11
199.8728792395229
 21
115.3176232310161
 31
0.0
  0
LINE
  5
128
330
1F
100
AcDbEntity
  8
21
  6
Continuous
 62
     7
370
     9
100
AcDbLine
 10
146.6338792395796
 20
120.5176232310138
 30
0.0
 11
146.3338792395794
 21
120.8176232310138
 31
0.0
  0
LINE
  5
129
330
1F
100
AcDbEntity
  8
21
  6
Continuous
 62
     7
370
     9
100
AcDbLine
 10
121.7335565968523
 20
120.8176232310138
 30
0.0
 11
146.3338792395794
 21
120.8176232310138
 31
0.0
  0
LINE
  5
12A
330
1F
100
AcDbEntity
  8
21
  6
Continuous
 62
     7
370
     9
100
AcDbLine
 10
121.6335565968523
 20
120.7176232310137
 30
0.0
 11
121.7335565968523
 21
120.8176232310138
 31
0.0
  0
LINE
  5
12B
330
1F
100
AcDbEntity
  8
21
  6
Continuous
 62
     7
370
     9
100
AcDbLine
 10
146.6338792395796
 20
120.5176232310138
 30
0.0
 11
146.6338792395796
 21
109.8176232310161
 31
0.0
  0
LINE
  5
12C
330
1F
100
AcDbEntity
  8
21
  6
DASHDOT
 62
     7
370
     9
100
AcDbLine
 10
32.29426303067504
 20
109.817623231016
 30
0.0
 11
29.90730240512667
 21
114.7822442320617
 31
0.0
  0
LINE
  5
12D
330
1F
100
AcDbEntity
  8
21
  6
DASHDOT
 62
     7
370
     9
100
AcDbLine
 10
29.90730240512667
 20
114.7822442320617
 30
0.0
 11
26.64093554849489
 21
104.5998211164007
 31
0.0
  0
LINE
  5
12E
330
1F
100
AcDbEntity
  8
21
  6
DASHDOT
 62
     7
370
     9
100
AcDbLine
 10
24.00271610671291
 20
109.8176232310231
 30
0.0
 11
26.64093554849489
 21
104.5998211164007
 31
0.0
  0
LINE
  5
12F
330
1F
100
AcDbEntity
  8
21
  6
Continuous
 62
     7
370
     9
100
AcDbLine
 10
16.48174557568842
 20
104.3176232310159
 30
0.0
 11
16.48174557568842
 21
115.3176232310159
 31
0.0
  0
LINE
  5
130
330
1F
100
AcDbEntity
  8
21
  6
DASHDOT
 62
     7
370
     9
100
AcDbLine
 10
14.48340432441279
 20
109.8176232310159
 30
0.0
 11
24.00271610671649
 21
109.817623231016
 31
0.0
  0
LINE
  5
131
330
1F
100
AcDbEntity
  8
21
  6
DASHDOT
 62
     7
370
     9
100
AcDbLine
 10
32.29426303067504
 20
109.817623231016
 30
0.0
 11
203.0377255766864
 21
109.8176232310162
 31
0.0
  0
LINE
  5
132
330
1F
100
AcDbEntity
  8
21
  6
Continuous
 62
     7
370
     9
100
AcDbLine
 10
121.6335565968523
 20
98.91762323101261
 30
0.0
 11
121.6335565968523
 21
120.7176232310126
 31
0.0
  0
DIMENSION
  5
13D
330
1F
100
AcDbEntity
  8
21
  6
Continuous
 62
     7
370
     9
100
AcDbDimension
  2
Dim1
 10
16.48174557568859
 20
152.6906040648097
 30
0.0
 11
30.37030723180041
 21
154.9406040648098
 31
0.0
 70
   160
  1
WD 111.8
 71
     5
 42
-1.0
  3
Standard
100
AcDbAlignedDimension
 13
51.13386888791248
 23
127.017623231016
 33
0.0
 14
16.48174557568842
 24
115.3176232310159
 34
0.0
 50
179.9999999999998
100
AcDbRotatedDimension
1001
ACAD
1000
DSTYLE
1002
{
1070
   279
1070
     2
1070
   340
1005
133
1070
   140
1040
3.2
1070
    40
1040
1.0
1070
   147
1040
0.0
1070
    76
1070
     0
1070
    75
1070
     0
1070
   344
1005
51
1070
   343
1005
51
1070
   173
1070
     1
1070
   289
1070
     2
1070
   288
1070
     1
1070
    77
1070
     1
1070
   172
1070
     1
1070
   174
1070
     0
1070
    74
1070
     0
1070
    73
1070
     0
1070
   284
1070
     8
1070
    78
1070
     8
1070
    42
1040
0.3333333333333333
1070
    44
1040
0.3333333333333333
1070
    43
1040
10.0
1070
   271
1070
     2
1070
    41
1040
3.2
1002
}
  0
DIMENSION
  5
147
330
1F
100
AcDbEntity
  8
21
  6
Continuous
 62
     7
370
     9
100
AcDbDimension
  2
Dim2
 10
51.13386888791237
 20
65.8085077848072
 30
0.0
 11
86.38387406374605
 21
67.85850778480739
 31
0.0
 70
   160
  1
<>
 71
     5
 42
-1.0
  3
Standard
100
AcDbAlignedDimension
 13
121.6338792395794
 23
98.91730058828674
 33
0.0
 14
51.13386888791248
 24
92.6176232310161
 34
0.0
 50
179.9999999999998
100
AcDbRotatedDimension
1001
ACAD
1000
DSTYLE
1002
{
1070
   279
1070
     2
1070
   340
1005
133
1070
   140
1040
3.2
1070
    40
1040
1.0
1070
   147
1040
0.0
1070
    76
1070
     0
1070
    75
1070
     0
1070
   344
1005
51
1070
   343
1005
51
1070
   173
1070
     1
1070
   289
1070
     2
1070
   288
1070
     1
1070
    77
1070
     1
1070
   172
1070
     1
1070
   174
1070
     0
1070
    74
1070
     0
1070
    73
1070
     0
1070
   284
1070
     8
1070
    78
1070
     8
1070
    42
1040
0.2666666666666667
1070
    44
1040
0.2666666666666667
1070
    43
1040
10.0
1070
   271
1070
     2
1070
    41
1040
3.2
1002
}
  0
DIMENSION
  5
151
330
1F
100
AcDbEntity
  8
21
  6
Continuous
 62
     7
370
     9
100
AcDbDimension
  2
Dim3
 10
121.6338792395793
 20
65.79983105378633
 30
0.0
 11
134.1338792395796
 21
67.84983105378637
 31
0.0
 70
   160
  1
<>
 71
     5
 42
-1.0
  3
Standard
100
AcDbAlignedDimension
 13
146.6338792395796
 23
99.11762323101826
 33
0.0
 14
121.6338792395794
 24
98.91730058828674
 34
0.0
 50
179.9999999999998
100
AcDbRotatedDimension
1001
ACAD
1000
DSTYLE
1002
{
1070
   279
1070
     2
1070
   340
1005
133
1070
   140
1040
3.2
1070
    40
1040
1.0
1070
   147
1040
0.0
1070
    76
1070
     0
1070
    75
1070
     0
1070
   344
1005
51
1070
   343
1005
51
1070
   173
1070
     1
1070
   289
1070
     2
1070
   288
1070
     1
1070
    77
1070
     1
1070
   172
1070
     1
1070
   174
1070
     0
1070
    74
1070
     0
1070
    73
1070
     0
1070
   284
1070
     8
1070
    78
1070
     8
1070
    42
1040
0.2666666666666667
1070
    44
1040
0.2666666666666667
1070
    43
1040
10.0
1070
   271
1070
     2
1070
    41
1040
3.2
1002
}
  0
DIMENSION
  5
15B
330
1F
100
AcDbEntity
  8
21
  6
Continuous
 62
     7
370
     9
100
AcDbDimension
  2
Dim4
 10
146.6338792395791
 20
65.80066260364737
 30
0.0
 11
161.2402179181873
 21
67.85066260364749
 31
0.0
 70
   160
  1
<>
 71
     5
 42
-1.0
  3
Standard
100
AcDbAlignedDimension
 13
175.8465565967952
 23
95.61762323117821
 33
0.0
 14
146.6338792395793
 24
99.01762323101687
 34
0.0
 50
179.9999999999998
100
AcDbRotatedDimension
1001
ACAD
1000
DSTYLE
1002
{
1070
   279
1070
     2
1070
   340
1005
133
1070
   140
1040
3.2
1070
    40
1040
1.0
1070
   147
1040
0.0
1070
    76
1070
     0
1070
    75
1070
     0
1070
   344
1005
51
1070
   343
1005
51
1070
   173
1070
     1
1070
   289
1070
     2
1070
   288
1070
     1
1070
    77
1070
     1
1070
   172
1070
     1
1070
   174
1070
     0
1070
    74
1070
     0
1070
    73
1070
     0
1070
   284
1070
     8
1070
    78
1070
     8
1070
    42
1040
0.2666666666666667
1070
    44
1040
0.2666666666666667
1070
    43
1040
10.0
1070
   271
1070
     2
1070
    41
1040
3.2
1002
}
  0
DIMENSION
  5
165
330
1F
100
AcDbEntity
  8
21
  6
Continuous
 62
     7
370
     9
100
AcDbDimension
  2
Dim5
 10
206.5868315900541
 20
124.3176232312551
 30
0.0
 11
204.8035315900542
 21
109.8176232312169
 31
0.0
 70
   160
  1
φ<>
 71
     5
 42
-1.0
  3
Standard
100
AcDbAlignedDimension
 13
182.0465565967953
 23
95.31762323117823
 33
0.0
 14
182.0465565967952
 24
124.3176232312552
 34
0.0
 50
89.99999999999991
100
AcDbRotatedDimension
1001
ACAD
1000
DSTYLE
1002
{
1070
   279
1070
     2
1070
   340
1005
133
1070
   140
1040
3.2
1070
    40
1040
1.0
1070
   147
1040
0.0
1070
    76
1070
     0
1070
    75
1070
     0
1070
   344
1005
51
1070
   343
1005
51
1070
   173
1070
     1
1070
   289
1070
     2
1070
   288
1070
     1
1070
    77
1070
     1
1070
   172
1070
     1
1070
   174
1070
     0
1070
    74
1070
     0
1070
    73
1070
     0
1070
   284
1070
     8
1070
    78
1070
     8
1070
    42
1040
0.3333333333333333
1070
    44
1040
0.3333333333333333
1070
    43
1040
10.0
1070
   271
1070
     2
1070
    41
1040
3.2
1002
}
  0
DIMENSION
  5
16F
330
1F
100
AcDbEntity
  8
21
  6
Continuous
 62
     7
370
     9
100
AcDbDimension
  2
Dim6
 10
199.872879239523
 20
152.6748207119674
 30
0.0
 11
190.3898877649414
 21
154.9248207119674
 31
0.0
 70
   160
  1
<>
 71
     5
 42
-1.0
  3
Standard
100
AcDbAlignedDimension
 13
182.3468792395221
 23
124.3176232310162
 33
0.0
 14
199.8728792395229
 24
115.3176232310162
 34
0.0
100
AcDbRotatedDimension
1001
ACAD
1000
DSTYLE
1002
{
1070
   279
1070
     2
1070
   340
1005
133
1070
   140
1040
3.2
1070
    40
1040
1.0
1070
   147
1040
0.0
1070
    76
1070
     0
1070
    75
1070
     0
1070
   344
1005
51
1070
   343
1005
51
1070
   173
1070
     1
1070
   289
1070
     2
1070
   288
1070
     1
1070
    77
1070
     1
1070
   172
1070
     1
1070
   174
1070
     0
1070
    74
1070
     0
1070
    73
1070
     0
1070
   284
1070
     8
1070
    78
1070
     8
1070
    42
1040
0.3333333333333333
1070
    44
1040
0.3333333333333333
1070
    43
1040
10.0
1070
   271
1070
     2
1070
    41
1040
3.2
1002
}
  0
DIMENSION
  5
179
330
1F
100
AcDbEntity
  8
21
  6
Continuous
 62
     7
370
     9
100
AcDbDimension
  2
Dim7
 10
51.1338688879126
 20
152.685999245688
 30
0.0
 11
116.6323740637172
 21
154.9359992456881
 31
0.0
 70
   160
  1
（<>
 71
     5
 42
-1.0
  3
Standard
100
AcDbAlignedDimension
 13
182.3468792395221
 23
126.3176232310151
 33
0.0
 14
51.13386888791248
 24
127.017623231016
 34
0.0
 50
179.9999999999998
100
AcDbRotatedDimension
1001
ACAD
1000
DSTYLE
1002
{
1070
   279
1070
     2
1070
   340
1005
133
1070
   140
1040
3.2
1070
    40
1040
1.0
1070
   147
1040
0.0
1070
    76
1070
     0
1070
    75
1070
     0
1070
   344
1005
51
1070
   343
1005
51
1070
   173
1070
     1
1070
   289
1070
     2
1070
   288
1070
     1
1070
    77
1070
     1
1070
   172
1070
     1
1070
   174
1070
     0
1070
    74
1070
     0
1070
    73
1070
     0
1070
   284
1070
     8
1070
    78
1070
     8
1070
    42
1040
0.3333333333333333
1070
    44
1040
0.3333333333333333
1070
    43
1040
10.0
1070
   271
1070
     2
1070
    41
1040
3.2
1002
}
  0
DIMENSION
  5
183
330
1F
100
AcDbEntity
  8
21
  6
Continuous
 62
     7
370
     9
100
AcDbDimension
  2
Dim8
 10
16.48174557568868
 20
170.0355256409342
 30
0.0
 11
110.3007440924607
 21
172.2855256409343
 31
0.0
 70
   160
  1
（O/I=260.5）
 71
     5
 42
-1.0
  3
Standard
100
AcDbAlignedDimension
 13
199.8728792395229
 23
115.3176232310162
 33
0.0
 14
16.48174557568842
 24
115.3176232310159
 34
0.0
 50
179.9999999999998
100
AcDbRotatedDimension
1001
ACAD
1000
DSTYLE
1002
{
1070
   279
1070
     2
1070
   340
1005
133
1070
   140
1040
3.2
1070
    40
1040
1.0
1070
   147
1040
0.0
1070
    76
1070
     0
1070
    75
1070
     0
1070
   344
1005
51
1070
   343
1005
51
1070
   173
1070
     1
1070
   289
1070
     2
1070
   288
1070
     1
1070
    77
1070
     1
1070
   172
1070
     1
1070
   174
1070
     0
1070
    74
1070
     0
1070
    73
1070
     0
1070
   284
1070
     8
1070
    78
1070
     8
1070
    42
1040
0.3333333333333333
1070
    44
1040
0.3333333333333333
1070
    43
1040
10.0
1070
   271
1070
     2
1070
    41
1040
3.2
1002
}
  0
DIMENSION
  5
18D
330
1F
100
AcDbEntity
  8
21
  6
Continuous
 62
     7
370
     9
100
AcDbDimension
  2
Dim9
 10
182.346556596795
 20
80.12777859321233
 30
0.0
 11
190.35161095909
 21
82.27777859321233
 31
0.0
 70
   160
  1
<>
 71
     5
 42
-1.0
  3
Standard
100
AcDbAlignedDimension
 13
186.3465565967952
 23
97.61762323097403
 33
0.0
 14
182.3465565967952
 24
95.61762323117813
 34
0.0
 50
179.9999999999998
100
AcDbRotatedDimension
1001
ACAD
1000
DSTYLE
1002
{
1070
   279
1070
     2
1070
   340
1005
133
1070
   140
1040
3.2
1070
    40
1040
1.0
1070
   147
1040
0.0
1070
    76
1070
     0
1070
    75
1070
     0
1070
   344
1005
51
1070
   343
1005
51
1070
   173
1070
     1
1070
   289
1070
     2
1070
   288
1070
     1
1070
    77
1070
     1
1070
   172
1070
     1
1070
   174
1070
     0
1070
    74
1070
     0
1070
    73
1070
     0
1070
   284
1070
     8
1070
    78
1070
     8
1070
    42
1040
0.2666666666666667
1070
    44
1040
0.2666666666666667
1070
    43
1040
10.0
1070
   271
1070
     2
1070
    41
1040
3.2
1002
}
  0
DIMENSION
  5
197
330
1F
100
AcDbEntity
  8
21
  6
Continuous
 62
     7
370
     9
100
AcDbDimension
  2
Dim10
 10
175.8465565967949
 20
65.80066260364732
 30
0.0
 11
188.2493343745726
 21
67.85066260364736
 31
0.0
 70
   160
  1
<>
 71
     5
 42
-1.0
  3
Standard
100
AcDbAlignedDimension
 13
182.3465565967952
 23
95.61762323117813
 33
0.0
 14
175.8465565967952
 24
95.61762323117821
 34
0.0
 50
179.9999999999998
100
AcDbRotatedDimension
1001
ACAD
1000
DSTYLE
1002
{
1070
   279
1070
     2
1070
   340
1005
133
1070
   140
1040
3.2
1070
    40
1040
1.0
1070
   147
1040
0.0
1070
    76
1070
     0
1070
    75
1070
     0
1070
   344
1005
51
1070
   343
1005
51
1070
   173
1070
     1
1070
   289
1070
     2
1070
   288
1070
     1
1070
    77
1070
     1
1070
   172
1070
     1
1070
   174
1070
     0
1070
    74
1070
     0
1070
    73
1070
     0
1070
   284
1070
     8
1070
    78
1070
     8
1070
    42
1040
0.2666666666666667
1070
    44
1040
0.2666666666666667
1070
    43
1040
10.0
1070
   271
1070
     2
1070
    41
1040
3.2
1002
}
  0
DIMENSION
  5
1A1
330
1F
100
AcDbEntity
  8
21
  6
Continuous
 62
     7
370
     9
100
AcDbDimension
  2
Dim11
 10
34.65229850222258
 20
92.31762323101611
 30
0.0
 11
32.6858118617332
 21
117.7225909798445
 31
0.0
 70
   160
  1
φ<>
 71
     5
 42
-1.0
 53
89.99999999999996
  3
Standard
100
AcDbAlignedDimension
 13
51.43386888791244
 23
127.317623231016
 33
0.0
 14
51.43386888791255
 24
92.31762323101611
 34
0.0
 50
-89.99999999999991
100
AcDbRotatedDimension
1001
ACAD
1000
DSTYLE
1002
{
1070
   279
1070
     2
1070
   286
1070
     8
1070
    48
1040
0.1
1070
    47
1040
0.0
1070
   146
1040
0.5
1070
   272
1070
     1
1070
   283
1070
     1
1070
    71
1070
     1
1070
   340
1005
133
1070
   140
1040
3.2
1070
    40
1040
1.0
1070
   147
1040
0.0
1070
    76
1070
     0
1070
    75
1070
     0
1070
   344
1005
51
1070
   343
1005
51
1070
   173
1070
     1
1070
   289
1070
     2
1070
   288
1070
     1
1070
    77
1070
     1
1070
   172
1070
     1
1070
   174
1070
     0
1070
    74
1070
     0
1070
    73
1070
     0
1070
   284
1070
     8
1070
    78
1070
     8
1070
    42
1040
0.2666666666666667
1070
    44
1040
0.2666666666666667
1070
    43
1040
10.0
1070
   271
1070
     2
1070
    41
1040
3.2
1002
}
  0
DIMENSION
  5
1A9
330
1F
100
AcDbEntity
  8
21
  6
Continuous
 62
     7
370
     9
100
AcDbDimension
  2
Dim12
 10
155.0354374307863
 20
120.8176232310163
 30
0.0
 11
151.8118540974531
 21
127.1029900332226
 31
0.0
 70
   160
  1
φ<>
 71
     5
 42
-1.0
  3
Standard
100
AcDbAlignedDimension
 13
162.2584215160973
 23
98.8176232310162
 33
0.0
 14
162.2584215160973
 24
120.8176232310162
 34
0.0
 50
89.99999999999991
100
AcDbRotatedDimension
1001
ACAD
1000
DSTYLE
1002
{
1070
   279
1070
     2
1070
   286
1070
     8
1070
    48
1040
0.1
1070
    47
1040
0.0
1070
   146
1040
0.5
1070
   272
1070
     1
1070
   283
1070
     1
1070
    71
1070
     1
1070
   340
1005
133
1070
   140
1040
3.2
1070
    40
1040
1.0
1070
   147
1040
0.0
1070
    76
1070
     1
1070
    75
1070
     1
1070
   344
1005
51
1070
   343
1005
51
1070
   173
1070
     1
1070
   289
1070
     2
1070
   288
1070
     1
1070
    77
1070
     1
1070
   172
1070
     1
1070
   174
1070
     0
1070
    74
1070
     0
1070
    73
1070
     0
1070
   284
1070
     8
1070
    78
1070
     8
1070
    42
1040
0.3333333333333333
1070
    44
1040
0.3333333333333333
1070
    43
1040
10.0
1070
   271
1070
     2
1070
    41
1040
3.2
1002
}
  0
MTEXT
  5
1AA
330
1F
100
AcDbEntity
  8
21
  6
Continuous
 62
     7
370
     9
100
AcDbMText
 10
200.2925336205738
 20
68.36751766148171
 30
0.0
 40
3.5
 41
17.3795491149
 71
     7
 72
     1
  1
{\fＭＳ ゴシック;\T0.762610;C Mount}
 11
-4.601704363468290E-15
 21
1.0
 31
0.0
 73
     1
 44
1.0
1001
ACAD
1000
ACAD_MTEXT_DEFINED_HEIGHT_BEGIN
1070
    46
1040
3.5
1000
ACAD_MTEXT_DEFINED_HEIGHT_END
  0
MTEXT
  5
1AB
330
1F
100
AcDbEntity
  8
21
  6
Continuous
 62
     7
370
     9
100
AcDbMText
 10
183.7590613464728
 20
147.568425058642
 30
0.0
 40
3.5
 41
19.829539493085
 71
     7
 72
     1
  1
{\fＭＳ ゴシック;\T0.866677;(IN AIR)}
 73
     1
 44
1.0
1001
ACAD
1000
ACAD_MTEXT_DEFINED_HEIGHT_BEGIN
1070
    46
1040
3.5
1000
ACAD_MTEXT_DEFINED_HEIGHT_END
  0
LINE
  5
1AC
330
1F
100
AcDbEntity
  8
21
  6
Continuous
 62
     7
370
     9
100
AcDbLine
 10
215.9159389627428
 20
168.8414634146342
 30
0.0
 11
215.9159389627429
 21
134.0696420574266
 31
0.0
  0
MTEXT
  5
1AD
330
1F
100
AcDbEntity
  8
21
  6
Continuous
 62
     7
370
     9
100
AcDbMText
 10
215.313013242794
 20
167.7769776810241
 30
0.0
 40
3.5
 41
47.21981823359499
 71
     9
 72
     1
  1
{\fＭＳ ゴシック;\T0.754469;3-M3ｘ3 Socket Head}
 11
-4.601704363468290E-15
 21
1.0
 31
0.0
 73
     1
 44
1.0
1001
ACAD
1000
ACAD_MTEXT_DEFINED_HEIGHT_BEGIN
1070
    46
1040
3.5
1000
ACAD_MTEXT_DEFINED_HEIGHT_END
  0
VIEWPORT
  5
3F
330
1B
100
AcDbEntity
 67
     1
  8
0
100
AcDbViewport
 10
148.5
 20
105.0
 30
0.0
 40
297.0
 41
210.0
 68
     1
 69
     1
 12
148.5
 22
105.0
 13
0.0
 23
0.0
 14
0.5
 24
0.5
 15
0.5
 25
0.5
 16
0.0
 26
0.0
 36
1.0
 17
0.0
 27
0.0
 37
0.0
 42
50.0
 43
0.0
 44
0.0
 45
9.0
 50
0.0
 51
0.0
 72
   100
 90
   557152
  1

281
     0
 71
     1
 74
     0
110
0.0
120
0.0
130
0.0
111
1.0
121
0.0
131
0.0
112
0.0
122
1.0
132
0.0
 79
     0
146
0.0
  0
ENDSEC
  0
SECTION
  2
OBJECTS
  0
DICTIONARY
  5
C
330
0
100
AcDbDictionary
281
     1
  3
ACAD_GROUP
350
D
  3
ACAD_LAYOUT
350
1A
  3
ACAD_MATERIAL
350
3B
  3
ACAD_MLEADERSTYLE
350
1B0
  3
ACAD_MLINESTYLE
350
17
  3
ACAD_PLOTSETTINGS
350
19
  3
ACAD_PLOTSTYLENAME
350
E
  3
ACAD_VISUALSTYLE
350
2A
  3
AcDbVariableDictionary
350
1AE
  0
DICTIONARY
  5
D
102
{ACAD_REACTORS
330
C
102
}
330
C
100
AcDbDictionary
281
     1
  0
DICTIONARY
  5
1A
102
{ACAD_REACTORS
330
C
102
}
330
C
100
AcDbDictionary
281
     1
  3
Layout1
350
1E
  3
Layout2
350
26
  3
Model
350
22
  0
DICTIONARY
  5
3B
102
{ACAD_REACTORS
330
C
102
}
330
C
100
AcDbDictionary
281
     1
  3
ByBlock
350
3D
  3
ByLayer
350
3C
  3
Global
350
3E
  0
DICTIONARY
  5
1B0
102
{ACAD_REACTORS
330
C
102
}
330
C
100
AcDbDictionary
281
     1
  0
DICTIONARY
  5
17
102
{ACAD_REACTORS
330
C
102
}
330
C
100
AcDbDictionary
281
     1
  3
Standard
350
18
  0
DICTIONARY
  5
19
102
{ACAD_REACTORS
330
C
102
}
330
C
100
AcDbDictionary
281
     1
  0
ACDBDICTIONARYWDFLT
  5
E
102
{ACAD_REACTORS
330
C
102
}
330
C
100
AcDbDictionary
281
     1
  3
Normal
350
F
100
AcDbDictionaryWithDefault
340
F
  0
DICTIONARY
  5
2A
102
{ACAD_REACTORS
330
C
102
}
330
C
100
AcDbDictionary
281
     1
  3
2dWireframe
350
2F
  3
3D Hidden
350
31
  3
3dWireframe
350
30
  3
Basic
350
32
  3
Brighten
350
36
  3
ColorChange
350
3A
  3
Conceptual
350
34
  3
Dim
350
35
  3
Facepattern
350
39
  3
Flat
350
2B
  3
FlatWithEdges
350
2C
  3
Gouraud
350
2D
  3
GouraudWithEdges
350
2E
  3
Linepattern
350
38
  3
Realistic
350
33
  3
Thicken
350
37
  0
DICTIONARY
  5
1AE
102
{ACAD_REACTORS
330
C
102
}
330
C
100
AcDbDictionary
281
     1
  3
DIMASSOC
350
1B1
  3
HIDETEXT
350
1B2
  0
LAYOUT
  5
1E
102
{ACAD_REACTORS
330
1A
102
}
330
1A
100
AcDbPlotSettings
  1

  2
none_device
  4

  6

 40
0.0
 41
0.0
 42
0.0
 43
0.0
 44
0.0
 45
0.0
 46
0.0
 47
0.0
 48
0.0
 49
0.0
140
0.0
141
0.0
142
1.0
143
1.0
 70
   688
 72
     0
 73
     0
 74
     5
  7

 75
    16
147
1.0
148
0.0
149
0.0
100
AcDbLayout
  1
Layout1
 70
     1
 71
     1
 10
0.0
 20
0.0
 11
297.0
 21
210.0
 12
0.0
 22
0.0
 32
0.0
 14
0.0
 24
0.0
 34
0.0
 15
297.0
 25
210.0
 35
0.0
146
0.0
 13
0.0
 23
0.0
 33
0.0
 16
1.0
 26
0.0
 36
0.0
 17
0.0
 27
1.0
 37
0.0
 76
     0
330
1B
331
3F
  0
LAYOUT
  5
26
102
{ACAD_REACTORS
330
1A
102
}
330
1A
100
AcDbPlotSettings
  1

  2
none_device
  4

  6

 40
0.0
 41
0.0
 42
0.0
 43
0.0
 44
0.0
 45
0.0
 46
0.0
 47
0.0
 48
0.0
 49
0.0
140
0.0
141
0.0
142
1.0
143
1.0
 70
   688
 72
     0
 73
     0
 74
     5
  7

 75
    16
147
1.0
148
0.0
149
0.0
100
AcDbLayout
  1
Layout2
 70
     1
 71
     2
 10
0.0
 20
0.0
 11
0.0
 21
0.0
 12
0.0
 22
0.0
 32
0.0
 14
0.0
 24
0.0
 34
0.0
 15
0.0
 25
0.0
 35
0.0
146
0.0
 13
0.0
 23
0.0
 33
0.0
 16
1.0
 26
0.0
 36
0.0
 17
0.0
 27
1.0
 37
0.0
 76
     0
330
23
  0
LAYOUT
  5
22
102
{ACAD_REACTORS
330
1A
102
}
330
1A
100
AcDbPlotSettings
  1

  2
none_device
  4

  6

 40
0.0
 41
0.0
 42
0.0
 43
0.0
 44
0.0
 45
0.0
 46
0.0
 47
0.0
 48
0.0
 49
0.0
140
0.0
141
0.0
142
1.0
143
1.0
 70
  1712
 72
     0
 73
     0
 74
     0
  7

 75
     0
147
1.0
148
0.0
149
0.0
100
AcDbLayout
  1
Model
 70
     1
 71
     0
 10
0.0
 20
0.0
 11
297.0
 21
210.0
 12
0.0
 22
0.0
 32
0.0
 14
14.48340432441279
 24
64.32402497324415
 34
0.0
 15
215.915938962743
 25
173.8855256409343
 35
0.0
146
0.0
 13
0.0
 23
0.0
 33
0.0
 16
1.0
 26
0.0
 36
0.0
 17
0.0
 27
1.0
 37
0.0
 76
     0
330
1F
331
29
  0
MATERIAL
  5
3D
102
{ACAD_REACTORS
330
3B
102
}
102
{ACAD_XDICTIONARY
360
1D5
102
}
330
3B
100
AcDbMaterial
  1
ByBlock
  0
MATERIAL
  5
3C
102
{ACAD_REACTORS
330
3B
102
}
102
{ACAD_XDICTIONARY
360
1D3
102
}
330
3B
100
AcDbMaterial
  1
ByLayer
  0
MATERIAL
  5
3E
102
{ACAD_REACTORS
330
3B
102
}
102
{ACAD_XDICTIONARY
360
1D7
102
}
330
3B
100
AcDbMaterial
  1
Global
  0
MLINESTYLE
  5
18
102
{ACAD_REACTORS
330
17
102
}
330
17
100
AcDbMlineStyle
  2
Standard
 70
     0
  3

 62
   256
 51
90.0
 52
90.0
 71
     2
 49
0.5
 62
   256
  6
BYLAYER
 49
-0.5
 62
   256
  6
BYLAYER
  0
ACDBPLACEHOLDER
  5
F
102
{ACAD_REACTORS
330
E
102
}
330
E
  0
VISUALSTYLE
  5
2F
102
{ACAD_REACTORS
330
2A
102
}
102
{ACAD_XDICTIONARY
360
1BB
102
}
330
2A
100
AcDbVisualStyle
  2
2dWireframe
 70
     4
 71
     0
 72
     2
 73
     0
 90
        0
 40
-0.6
 41
-30.0
 62
     5
 63
     7
 74
     1
 91
        4
 64
     7
 65
   257
 75
     1
175
     1
 42
1.0
 92
        0
 66
   257
 43
1.0
 76
     1
 77
     6
 78
     2
 67
     7
 79
     5
170
     0
171
     0
290
     0
174
     0
 93
        1
 44
0.0
173
     0
291
     0
 45
0.0
1001
ACAD
1000
AcDbSavedByObjectVersion
1070
     0
  0
VISUALSTYLE
  5
31
102
{ACAD_REACTORS
330
2A
102
}
102
{ACAD_XDICTIONARY
360
1BF
102
}
330
2A
100
AcDbVisualStyle
  2
3D Hidden
 70
     6
 71
     1
 72
     2
 73
     2
 90
        0
 40
-0.6
 41
-30.0
 62
     5
 63
     7
 74
     2
 91
        2
 64
     7
 65
   257
 75
     2
175
     1
 42
40.0
 92
        0
 66
   257
 43
1.0
 76
     1
 77
     6
 78
     2
 67
     7
 79
     3
170
     0
171
     0
290
     0
174
     0
 93
        1
 44
0.0
173
     0
291
     0
 45
0.0
1001
ACAD
1000
AcDbSavedByObjectVersion
1070
     0
  0
VISUALSTYLE
  5
30
102
{ACAD_REACTORS
330
2A
102
}
102
{ACAD_XDICTIONARY
360
1BD
102
}
330
2A
100
AcDbVisualStyle
  2
3dWireframe
 70
     5
 71
     0
 72
     2
 73
     0
 90
        0
 40
-0.6
 41
-30.0
 62
     5
 63
     7
 74
     1
 91
        4
 64
     7
 65
   257
 75
     1
175
     1
 42
1.0
 92
        0
 66
   257
 43
1.0
 76
     1
 77
     6
 78
     2
 67
     7
 79
     5
170
     0
171
     0
290
     0
174
     0
 93
        1
 44
0.0
173
     0
291
     0
 45
0.0
1001
ACAD
1000
AcDbSavedByObjectVersion
1070
     0
  0
VISUALSTYLE
  5
32
102
{ACAD_REACTORS
330
2A
102
}
102
{ACAD_XDICTIONARY
360
1C1
102
}
330
2A
100
AcDbVisualStyle
  2
Basic
 70
     7
 71
     1
 72
     0
 73
     1
 90
        0
 40
-0.6
 41
-30.0
 62
     5
 63
     7
 74
     0
 91
        4
 64
     7
 65
   257
 75
     1
175
     1
 42
1.0
 92
        8
 66
     7
 43
1.0
 76
     1
 77
     6
 78
     2
 67
     7
 79
     5
170
     0
171
     0
290
     0
174
     0
 93
        1
 44
0.0
173
     0
291
     1
 45
0.0
1001
ACAD
1000
AcDbSavedByObjectVersion
1070
     0
  0
VISUALSTYLE
  5
36
102
{ACAD_REACTORS
330
2A
102
}
102
{ACAD_XDICTIONARY
360
1C9
102
}
330
2A
100
AcDbVisualStyle
  2
Brighten
 70
    12
 71
     2
 72
     2
 73
     0
 90
        0
 40
-0.6
 41
-30.0
 62
     5
 63
     7
 74
     1
 91
        4
 64
     7
 65
   257
 75
     1
175
     1
 42
1.0
 92
        8
 66
     7
 43
1.0
 76
     1
 77
     6
 78
     2
 67
     7
 79
     5
170
     0
171
     0
290
     0
174
     0
 93
        1
 44
50.0
173
     0
291
     1
 45
0.0
1001
ACAD
1000
AcDbSavedByObjectVersion
1070
     0
  0
VISUALSTYLE
  5
3A
102
{ACAD_REACTORS
330
2A
102
}
102
{ACAD_XDICTIONARY
360
1D1
102
}
330
2A
100
AcDbVisualStyle
  2
ColorChange
 70
    16
 71
     2
 72
     2
 73
     3
 90
        0
 40
-0.6
 41
-30.0
 62
     5
 63
     8
 74
     1
 91
        4
 64
     7
 65
   257
 75
     1
175
     1
 42
1.0
 92
        8
 66
     8
 43
1.0
 76
     1
 77
     6
 78
     2
 67
     7
 79
     5
170
     0
171
     0
290
     0
174
     0
 93
        1
 44
0.0
173
     0
291
     1
 45
0.0
1001
ACAD
1000
AcDbSavedByObjectVersion
1070
     0
  0
VISUALSTYLE
  5
34
102
{ACAD_REACTORS
330
2A
102
}
102
{ACAD_XDICTIONARY
360
1C5
102
}
330
2A
100
AcDbVisualStyle
  2
Conceptual
 70
     9
 71
     3
 72
     2
 73
     0
 90
        0
 40
-0.6
 41
-30.0
 62
     5
 63
     7
 74
     2
 91
        2
 64
     7
 65
   257
 75
     1
175
     1
 42
40.0
 92
        8
 66
     7
 43
1.0
 76
     1
 77
     6
 78
     2
 67
     7
 79
     3
170
     0
171
     0
290
     0
174
     0
 93
        1
 44
0.0
173
     0
291
     0
 45
0.0
1001
ACAD
1000
AcDbSavedByObjectVersion
1070
     0
  0
VISUALSTYLE
  5
35
102
{ACAD_REACTORS
330
2A
102
}
102
{ACAD_XDICTIONARY
360
1C7
102
}
330
2A
100
AcDbVisualStyle
  2
Dim
 70
    11
 71
     2
 72
     2
 73
     0
 90
        0
 40
-0.6
 41
-30.0
 62
     5
 63
     7
 74
     1
 91
        4
 64
     7
 65
   257
 75
     1
175
     1
 42
1.0
 92
        8
 66
     7
 43
1.0
 76
     1
 77
     6
 78
     2
 67
     7
 79
     5
170
     0
171
     0
290
     0
174
     0
 93
        1
 44
-50.0
173
     0
291
     1
 45
0.0
1001
ACAD
1000
AcDbSavedByObjectVersion
1070
     0
  0
VISUALSTYLE
  5
39
102
{ACAD_REACTORS
330
2A
102
}
102
{ACAD_XDICTIONARY
360
1CF
102
}
330
2A
100
AcDbVisualStyle
  2
Facepattern
 70
    15
 71
     2
 72
     2
 73
     0
 90
        0
 40
-0.6
 41
-30.0
 62
     5
 63
     7
 74
     1
 91
        4
 64
     7
 65
   257
 75
     1
175
     1
 42
1.0
 92
        8
 66
     7
 43
1.0
 76
     1
 77
     6
 78
     2
 67
     7
 79
     5
170
     0
171
     0
290
     0
174
     0
 93
        1
 44
0.0
173
     0
291
     1
 45
0.0
1001
ACAD
1000
AcDbSavedByObjectVersion
1070
     0
  0
VISUALSTYLE
  5
2B
102
{ACAD_REACTORS
330
2A
102
}
102
{ACAD_XDICTIONARY
360
1B3
102
}
330
2A
100
AcDbVisualStyle
  2
Flat
 70
     0
 71
     2
 72
     1
 73
     1
 90
        2
 40
-0.6
 41
30.0
 62
     5
 63
     7
 74
     0
 91
        4
 64
     7
 65
   257
 75
     1
175
     1
 42
1.0
 92
        8
 66
     7
 43
1.0
 76
     1
 77
     6
 78
     2
 67
     7
 79
     5
170
     0
171
     0
290
     0
174
     0
 93
       13
 44
0.0
173
     0
291
     1
 45
0.0
1001
ACAD
1000
AcDbSavedByObjectVersion
1070
     0
  0
VISUALSTYLE
  5
2C
102
{ACAD_REACTORS
330
2A
102
}
102
{ACAD_XDICTIONARY
360
1B5
102
}
330
2A
100
AcDbVisualStyle
  2
FlatWithEdges
 70
     1
 71
     2
 72
     1
 73
     1
 90
        2
 40
-0.6
 41
30.0
 62
     5
 63
     7
 74
     1
 91
        4
 64
     7
 65
   257
 75
     1
175
     1
 42
1.0
 92
        0
 66
   257
 43
1.0
 76
     1
 77
     6
 78
     2
 67
     7
 79
     5
170
     0
171
     0
290
     0
174
     0
 93
       13
 44
0.0
173
     0
291
     1
 45
0.0
1001
ACAD
1000
AcDbSavedByObjectVersion
1070
     0
  0
VISUALSTYLE
  5
2D
102
{ACAD_REACTORS
330
2A
102
}
102
{ACAD_XDICTIONARY
360
1B7
102
}
330
2A
100
AcDbVisualStyle
  2
Gouraud
 70
     2
 71
     2
 72
     2
 73
     1
 90
        2
 40
-0.6
 41
30.0
 62
     5
 63
     7
 74
     0
 91
        4
 64
     7
 65
   257
 75
     1
175
     1
 42
1.0
 92
        0
 66
     7
 43
1.0
 76
     1
 77
     6
 78
     2
 67
     7
 79
     5
170
     0
171
     0
290
     0
174
     0
 93
       13
 44
0.0
173
     0
291
     1
 45
0.0
1001
ACAD
1000
AcDbSavedByObjectVersion
1070
     0
  0
VISUALSTYLE
  5
2E
102
{ACAD_REACTORS
330
2A
102
}
102
{ACAD_XDICTIONARY
360
1B9
102
}
330
2A
100
AcDbVisualStyle
  2
GouraudWithEdges
 70
     3
 71
     2
 72
     2
 73
     1
 90
        2
 40
-0.6
 41
30.0
 62
     5
 63
     7
 74
     1
 91
        4
 64
     7
 65
   257
 75
     1
175
     1
 42
1.0
 92
        0
 66
   257
 43
1.0
 76
     1
 77
     6
 78
     2
 67
     7
 79
     5
170
     0
171
     0
290
     0
174
     0
 93
       13
 44
0.0
173
     0
291
     1
 45
0.0
1001
ACAD
1000
AcDbSavedByObjectVersion
1070
     0
  0
VISUALSTYLE
  5
38
102
{ACAD_REACTORS
330
2A
102
}
102
{ACAD_XDICTIONARY
360
1CD
102
}
330
2A
100
AcDbVisualStyle
  2
Linepattern
 70
    14
 71
     2
 72
     2
 73
     0
 90
        0
 40
-0.6
 41
-30.0
 62
     5
 63
     7
 74
     1
 91
        4
 64
     7
 65
   257
 75
     7
175
     7
 42
1.0
 92
        8
 66
     7
 43
1.0
 76
     1
 77
     6
 78
     2
 67
     7
 79
     5
170
     0
171
     0
290
     0
174
     0
 93
        1
 44
0.0
173
     0
291
     1
 45
0.0
1001
ACAD
1000
AcDbSavedByObjectVersion
1070
     0
  0
VISUALSTYLE
  5
33
102
{ACAD_REACTORS
330
2A
102
}
102
{ACAD_XDICTIONARY
360
1C3
102
}
330
2A
100
AcDbVisualStyle
  2
Realistic
 70
     8
 71
     2
 72
     2
 73
     0
 90
        0
 40
-0.6
 41
-30.0
 62
     5
 63
     7
 74
     1
 91
        0
 64
     7
 65
   257
 75
     1
175
     1
 42
1.0
 92
        8
 66
     8
 43
1.0
 76
     1
 77
     6
 78
     2
 67
     7
 79
     5
170
     0
171
     0
290
     0
174
     0
 93
       13
 44
0.0
173
     0
291
     0
 45
0.0
1001
ACAD
1000
AcDbSavedByObjectVersion
1070
     0
  0
VISUALSTYLE
  5
37
102
{ACAD_REACTORS
330
2A
102
}
102
{ACAD_XDICTIONARY
360
1CB
102
}
330
2A
100
AcDbVisualStyle
  2
Thicken
 70
    13
 71
     2
 72
     2
 73
     0
 90
        0
 40
-0.6
 41
-30.0
 62
     5
 63
     7
 74
     1
 91
        4
 64
     7
 65
   257
 75
     1
175
     1
 42
1.0
 92
       12
 66
     7
 43
1.0
 76
     1
 77
     6
 78
     2
 67
     7
 79
     5
170
     0
171
     0
290
     0
174
     0
 93
        1
 44
0.0
173
     0
291
     1
 45
0.0
1001
ACAD
1000
AcDbSavedByObjectVersion
1070
     0
  0
DICTIONARYVAR
  5
1B1
102
{ACAD_REACTORS
330
1AE
102
}
330
1AE
100
DictionaryVariables
280
     0
  1
1
  0
DICTIONARYVAR
  5
1B2
102
{ACAD_REACTORS
330
1AE
102
}
330
1AE
100
DictionaryVariables
280
     0
  1
1
  0
DICTIONARY
  5
1D5
330
3D
100
AcDbDictionary
280
     1
281
     1
  3
ACAD_XREC_ROUNDTRIP
360
1D6
  0
DICTIONARY
  5
1D3
330
3C
100
AcDbDictionary
280
     1
281
     1
  3
ACAD_XREC_ROUNDTRIP
360
1D4
  0
DICTIONARY
  5
1D7
330
3E
100
AcDbDictionary
280
     1
281
     1
  3
ACAD_XREC_ROUNDTRIP
360
1D8
  0
DICTIONARY
  5
1BB
330
2F
100
AcDbDictionary
280
     1
281
     1
  3
ACAD_XREC_ROUNDTRIP
360
1BC
  0
DICTIONARY
  5
1BF
330
31
100
AcDbDictionary
280
     1
281
     1
  3
ACAD_XREC_ROUNDTRIP
360
1C0
  0
DICTIONARY
  5
1BD
330
30
100
AcDbDictionary
280
     1
281
     1
  3
ACAD_XREC_ROUNDTRIP
360
1BE
  0
DICTIONARY
  5
1C1
330
32
100
AcDbDictionary
280
     1
281
     1
  3
ACAD_XREC_ROUNDTRIP
360
1C2
  0
DICTIONARY
  5
1C9
330
36
100
AcDbDictionary
280
     1
281
     1
  3
ACAD_XREC_ROUNDTRIP
360
1CA
  0
DICTIONARY
  5
1D1
330
3A
100
AcDbDictionary
280
     1
281
     1
  3
ACAD_XREC_ROUNDTRIP
360
1D2
  0
DICTIONARY
  5
1C5
330
34
100
AcDbDictionary
280
     1
281
     1
  3
ACAD_XREC_ROUNDTRIP
360
1C6
  0
DICTIONARY
  5
1C7
330
35
100
AcDbDictionary
280
     1
281
     1
  3
ACAD_XREC_ROUNDTRIP
360
1C8
  0
DICTIONARY
  5
1CF
330
39
100
AcDbDictionary
280
     1
281
     1
  3
ACAD_XREC_ROUNDTRIP
360
1D0
  0
DICTIONARY
  5
1B3
330
2B
100
AcDbDictionary
280
     1
281
     1
  3
ACAD_XREC_ROUNDTRIP
360
1B4
  0
DICTIONARY
  5
1B5
330
2C
100
AcDbDictionary
280
     1
281
     1
  3
ACAD_XREC_ROUNDTRIP
360
1B6
  0
DICTIONARY
  5
1B7
330
2D
100
AcDbDictionary
280
     1
281
     1
  3
ACAD_XREC_ROUNDTRIP
360
1B8
  0
DICTIONARY
  5
1B9
330
2E
100
AcDbDictionary
280
     1
281
     1
  3
ACAD_XREC_ROUNDTRIP
360
1BA
  0
DICTIONARY
  5
1CD
330
38
100
AcDbDictionary
280
     1
281
     1
  3
ACAD_XREC_ROUNDTRIP
360
1CE
  0
DICTIONARY
  5
1C3
330
33
100
AcDbDictionary
280
     1
281
     1
  3
ACAD_XREC_ROUNDTRIP
360
1C4
  0
DICTIONARY
  5
1CB
330
37
100
AcDbDictionary
280
     1
281
     1
  3
ACAD_XREC_ROUNDTRIP
360
1CC
  0
XRECORD
  5
1D6
102
{ACAD_REACTORS
330
1D5
102
}
330
1D5
100
AcDbXrecord
280
     1
102
MATERIAL
148
0.0
149
0.0
149
0.0
 93
        0
 94
      127
282
     0
 72
     1
 77
     1
171
     1
175
     1
179
     1
273
     0
  0
XRECORD
  5
1D4
102
{ACAD_REACTORS
330
1D3
102
}
330
1D3
100
AcDbXrecord
280
     1
102
MATERIAL
148
0.0
149
0.0
149
0.0
 93
        0
 94
      127
282
     0
 72
     1
 77
     1
171
     1
175
     1
179
     1
273
     0
  0
XRECORD
  5
1D8
102
{ACAD_REACTORS
330
1D7
102
}
330
1D7
100
AcDbXrecord
280
     1
102
MATERIAL
148
0.0
149
0.0
149
0.0
 93
        0
 94
      127
282
     0
 72
     1
 77
     1
171
     1
175
     1
179
     1
273
     0
  0
XRECORD
  5
1BC
102
{ACAD_REACTORS
330
1BB
102
}
330
1BB
100
AcDbXrecord
280
     1
102
RTVSPropertyOp0
 70
     1
102
RTVSPropertyOp1
 70
     1
102
RTVSPropertyOp2
 70
     1
102
RTVSPropertyOp3
 70
     1
102
RTVSPropertyOp4
 70
     1
102
RTVSPropertyOp5
 70
     1
102
RTVSPropertyOp6
 70
     1
102
RTVSPropertyOp7
 70
     1
102
RTVSPropertyOp8
 70
     1
102
RTVSPropertyOp9
 70
     1
102
RTVSPropertyOp10
 70
     1
102
RTVSPropertyOp11
 70
     1
102
RTVSPropertyOp12
 70
     1
102
RTVSPropertyOp13
 70
     1
102
RTVSPropertyOp14
 70
     1
102
RTVSPropertyOp15
 70
     1
102
RTVSPropertyOp16
 70
     1
102
RTVSPropertyOp17
 70
     1
102
RTVSPropertyOp18
 70
     1
102
RTVSPropertyOp19
 70
     1
102
RTVSPropertyOp20
 70
     1
102
RTVSPropertyOp21
 70
     1
102
RTVSPropertyOp22
 70
     1
102
RTVSPropertyOp23
 70
     1
102
RTVSPropertyOp24
 70
     1
102
RTVSPropertyOp25
 70
     1
102
RTVSPropertyOp26
 70
     1
102
RTVSPropertyOp27
 70
     1
102
RTVSPropertyOp28
 70
     1
102
RTVSPropertyOp29
 70
     1
102
RTVSPropertyOp30
 70
     1
102
RTVSPropertyOp31
 70
     1
102
RTVSPropertyOp32
 70
     1
  0
XRECORD
  5
1C0
102
{ACAD_REACTORS
330
1BF
102
}
330
1BF
100
AcDbXrecord
280
     1
102
RTVSPropertyOp0
 70
     1
102
RTVSPropertyOp1
 70
     1
102
RTVSPropertyOp2
 70
     1
102
RTVSPropertyOp3
 70
     1
102
RTVSPropertyOp4
 70
     1
102
RTVSPropertyOp5
 70
     1
102
RTVSPropertyOp6
 70
     1
102
RTVSPropertyOp7
 70
     1
102
RTVSPropertyOp8
 70
     1
102
RTVSPropertyOp9
 70
     1
102
RTVSPropertyOp10
 70
     1
102
RTVSPropertyOp11
 70
     1
102
RTVSPropertyOp12
 70
     1
102
RTVSPropertyOp13
 70
     1
102
RTVSPropertyOp14
 70
     1
102
RTVSPropertyOp15
 70
     1
102
RTVSPropertyOp16
 70
     1
102
RTVSPropertyOp17
 70
     1
102
RTVSPropertyOp18
 70
     1
102
RTVSPropertyOp19
 70
     1
102
RTVSPropertyOp20
 70
     1
102
RTVSPropertyOp21
 70
     1
102
RTVSPropertyOp22
 70
     1
102
RTVSPropertyOp23
 70
     1
102
RTVSPropertyOp24
 70
     1
102
RTVSPropertyOp25
 70
     1
102
RTVSPropertyOp26
 70
     1
102
RTVSPropertyOp27
 70
     1
102
RTVSPropertyOp28
 70
     1
102
RTVSPropertyOp29
 70
     1
102
RTVSPropertyOp30
 70
     1
102
RTVSPropertyOp31
 70
     1
102
RTVSPropertyOp32
 70
     1
  0
XRECORD
  5
1BE
102
{ACAD_REACTORS
330
1BD
102
}
330
1BD
100
AcDbXrecord
280
     1
102
RTVSPropertyOp0
 70
     1
102
RTVSPropertyOp1
 70
     1
102
RTVSPropertyOp2
 70
     1
102
RTVSPropertyOp3
 70
     1
102
RTVSPropertyOp4
 70
     1
102
RTVSPropertyOp5
 70
     1
102
RTVSPropertyOp6
 70
     1
102
RTVSPropertyOp7
 70
     1
102
RTVSPropertyOp8
 70
     1
102
RTVSPropertyOp9
 70
     1
102
RTVSPropertyOp10
 70
     1
102
RTVSPropertyOp11
 70
     1
102
RTVSPropertyOp12
 70
     1
102
RTVSPropertyOp13
 70
     1
102
RTVSPropertyOp14
 70
     1
102
RTVSPropertyOp15
 70
     1
102
RTVSPropertyOp16
 70
     1
102
RTVSPropertyOp17
 70
     1
102
RTVSPropertyOp18
 70
     1
102
RTVSPropertyOp19
 70
     1
102
RTVSPropertyOp20
 70
     1
102
RTVSPropertyOp21
 70
     1
102
RTVSPropertyOp22
 70
     1
102
RTVSPropertyOp23
 70
     1
102
RTVSPropertyOp24
 70
     1
102
RTVSPropertyOp25
 70
     1
102
RTVSPropertyOp26
 70
     1
102
RTVSPropertyOp27
 70
     1
102
RTVSPropertyOp28
 70
     1
102
RTVSPropertyOp29
 70
     1
102
RTVSPropertyOp30
 70
     1
102
RTVSPropertyOp31
 70
     1
102
RTVSPropertyOp32
 70
     1
  0
XRECORD
  5
1C2
102
{ACAD_REACTORS
330
1C1
102
}
330
1C1
100
AcDbXrecord
280
     1
102
RTVSPropertyOp0
 70
     1
102
RTVSPropertyOp1
 70
     1
102
RTVSPropertyOp2
 70
     1
102
RTVSPropertyOp3
 70
     1
102
RTVSPropertyOp4
 70
     1
102
RTVSPropertyOp5
 70
     1
102
RTVSPropertyOp6
 70
     1
102
RTVSPropertyOp7
 70
     1
102
RTVSPropertyOp8
 70
     1
102
RTVSPropertyOp9
 70
     1
102
RTVSPropertyOp10
 70
     1
102
RTVSPropertyOp11
 70
     1
102
RTVSPropertyOp12
 70
     1
102
RTVSPropertyOp13
 70
     1
102
RTVSPropertyOp14
 70
     1
102
RTVSPropertyOp15
 70
     1
102
RTVSPropertyOp16
 70
     1
102
RTVSPropertyOp17
 70
     1
102
RTVSPropertyOp18
 70
     1
102
RTVSPropertyOp19
 70
     1
102
RTVSPropertyOp20
 70
     1
102
RTVSPropertyOp21
 70
     1
102
RTVSPropertyOp22
 70
     1
102
RTVSPropertyOp23
 70
     1
102
RTVSPropertyOp24
 70
     1
102
RTVSPropertyOp25
 70
     1
102
RTVSPropertyOp26
 70
     1
102
RTVSPropertyOp27
 70
     1
102
RTVSPropertyOp28
 70
     1
102
RTVSPropertyOp29
 70
     1
102
RTVSPropertyOp30
 70
     1
102
RTVSPropertyOp31
 70
     1
102
RTVSPropertyOp32
 70
     1
  0
XRECORD
  5
1CA
102
{ACAD_REACTORS
330
1C9
102
}
330
1C9
100
AcDbXrecord
280
     1
102
RTVSPropertyOp0
 70
     1
102
RTVSPropertyOp1
 70
     1
102
RTVSPropertyOp2
 70
     1
102
RTVSPropertyOp3
 70
     1
102
RTVSPropertyOp4
 70
     1
102
RTVSPropertyOp5
 70
     1
102
RTVSPropertyOp6
 70
     1
102
RTVSPropertyOp7
 70
     1
102
RTVSPropertyOp8
 70
     1
102
RTVSPropertyOp9
 70
     1
102
RTVSPropertyOp10
 70
     1
102
RTVSPropertyOp11
 70
     1
102
RTVSPropertyOp12
 70
     1
102
RTVSPropertyOp13
 70
     1
102
RTVSPropertyOp14
 70
     1
102
RTVSPropertyOp15
 70
     1
102
RTVSPropertyOp16
 70
     1
102
RTVSPropertyOp17
 70
     1
102
RTVSPropertyOp18
 70
     1
102
RTVSPropertyOp19
 70
     1
102
RTVSPropertyOp20
 70
     1
102
RTVSPropertyOp21
 70
     1
102
RTVSPropertyOp22
 70
     1
102
RTVSPropertyOp23
 70
     1
102
RTVSPropertyOp24
 70
     1
102
RTVSPropertyOp25
 70
     1
102
RTVSPropertyOp26
 70
     1
102
RTVSPropertyOp27
 70
     1
102
RTVSPropertyOp28
 70
     1
102
RTVSPropertyOp29
 70
     1
102
RTVSPropertyOp30
 70
     1
102
RTVSPropertyOp31
 70
     1
102
RTVSPropertyOp32
 70
     1
  0
XRECORD
  5
1D2
102
{ACAD_REACTORS
330
1D1
102
}
330
1D1
100
AcDbXrecord
280
     1
102
RTVSPropertyOp0
 70
     1
102
RTVSPropertyOp1
 70
     1
102
RTVSPropertyOp2
 70
     1
102
RTVSPropertyOp3
 70
     1
102
RTVSPropertyOp4
 70
     1
102
RTVSPropertyOp5
 70
     1
102
RTVSPropertyOp6
 70
     1
102
RTVSPropertyOp7
 70
     1
102
RTVSPropertyOp8
 70
     1
102
RTVSPropertyOp9
 70
     1
102
RTVSPropertyOp10
 70
     1
102
RTVSPropertyOp11
 70
     1
102
RTVSPropertyOp12
 70
     1
102
RTVSPropertyOp13
 70
     1
102
RTVSPropertyOp14
 70
     1
102
RTVSPropertyOp15
 70
     1
102
RTVSPropertyOp16
 70
     1
102
RTVSPropertyOp17
 70
     1
102
RTVSPropertyOp18
 70
     1
102
RTVSPropertyOp19
 70
     1
102
RTVSPropertyOp20
 70
     1
102
RTVSPropertyOp21
 70
     1
102
RTVSPropertyOp22
 70
     1
102
RTVSPropertyOp23
 70
     1
102
RTVSPropertyOp24
 70
     1
102
RTVSPropertyOp25
 70
     1
102
RTVSPropertyOp26
 70
     1
102
RTVSPropertyOp27
 70
     1
102
RTVSPropertyOp28
 70
     1
102
RTVSPropertyOp29
 70
     1
102
RTVSPropertyOp30
 70
     1
102
RTVSPropertyOp31
 70
     1
102
RTVSPropertyOp32
 70
     1
  0
XRECORD
  5
1C6
102
{ACAD_REACTORS
330
1C5
102
}
330
1C5
100
AcDbXrecord
280
     1
102
RTVSPropertyOp0
 70
     1
102
RTVSPropertyOp1
 70
     1
102
RTVSPropertyOp2
 70
     1
102
RTVSPropertyOp3
 70
     1
102
RTVSPropertyOp4
 70
     1
102
RTVSPropertyOp5
 70
     1
102
RTVSPropertyOp6
 70
     1
102
RTVSPropertyOp7
 70
     1
102
RTVSPropertyOp8
 70
     1
102
RTVSPropertyOp9
 70
     1
102
RTVSPropertyOp10
 70
     1
102
RTVSPropertyOp11
 70
     1
102
RTVSPropertyOp12
 70
     1
102
RTVSPropertyOp13
 70
     1
102
RTVSPropertyOp14
 70
     1
102
RTVSPropertyOp15
 70
     1
102
RTVSPropertyOp16
 70
     1
102
RTVSPropertyOp17
 70
     1
102
RTVSPropertyOp18
 70
     1
102
RTVSPropertyOp19
 70
     1
102
RTVSPropertyOp20
 70
     1
102
RTVSPropertyOp21
 70
     1
102
RTVSPropertyOp22
 70
     1
102
RTVSPropertyOp23
 70
     1
102
RTVSPropertyOp24
 70
     1
102
RTVSPropertyOp25
 70
     1
102
RTVSPropertyOp26
 70
     1
102
RTVSPropertyOp27
 70
     1
102
RTVSPropertyOp28
 70
     1
102
RTVSPropertyOp29
 70
     1
102
RTVSPropertyOp30
 70
     1
102
RTVSPropertyOp31
 70
     1
102
RTVSPropertyOp32
 70
     1
  0
XRECORD
  5
1C8
102
{ACAD_REACTORS
330
1C7
102
}
330
1C7
100
AcDbXrecord
280
     1
102
RTVSPropertyOp0
 70
     1
102
RTVSPropertyOp1
 70
     1
102
RTVSPropertyOp2
 70
     1
102
RTVSPropertyOp3
 70
     1
102
RTVSPropertyOp4
 70
     1
102
RTVSPropertyOp5
 70
     1
102
RTVSPropertyOp6
 70
     1
102
RTVSPropertyOp7
 70
     1
102
RTVSPropertyOp8
 70
     1
102
RTVSPropertyOp9
 70
     1
102
RTVSPropertyOp10
 70
     1
102
RTVSPropertyOp11
 70
     1
102
RTVSPropertyOp12
 70
     1
102
RTVSPropertyOp13
 70
     1
102
RTVSPropertyOp14
 70
     1
102
RTVSPropertyOp15
 70
     1
102
RTVSPropertyOp16
 70
     1
102
RTVSPropertyOp17
 70
     1
102
RTVSPropertyOp18
 70
     1
102
RTVSPropertyOp19
 70
     1
102
RTVSPropertyOp20
 70
     1
102
RTVSPropertyOp21
 70
     1
102
RTVSPropertyOp22
 70
     1
102
RTVSPropertyOp23
 70
     1
102
RTVSPropertyOp24
 70
     1
102
RTVSPropertyOp25
 70
     1
102
RTVSPropertyOp26
 70
     1
102
RTVSPropertyOp27
 70
     1
102
RTVSPropertyOp28
 70
     1
102
RTVSPropertyOp29
 70
     1
102
RTVSPropertyOp30
 70
     1
102
RTVSPropertyOp31
 70
     1
102
RTVSPropertyOp32
 70
     1
  0
XRECORD
  5
1D0
102
{ACAD_REACTORS
330
1CF
102
}
330
1CF
100
AcDbXrecord
280
     1
102
RTVSPropertyOp0
 70
     1
102
RTVSPropertyOp1
 70
     1
102
RTVSPropertyOp2
 70
     1
102
RTVSPropertyOp3
 70
     1
102
RTVSPropertyOp4
 70
     1
102
RTVSPropertyOp5
 70
     1
102
RTVSPropertyOp6
 70
     1
102
RTVSPropertyOp7
 70
     1
102
RTVSPropertyOp8
 70
     1
102
RTVSPropertyOp9
 70
     1
102
RTVSPropertyOp10
 70
     1
102
RTVSPropertyOp11
 70
     1
102
RTVSPropertyOp12
 70
     1
102
RTVSPropertyOp13
 70
     1
102
RTVSPropertyOp14
 70
     1
102
RTVSPropertyOp15
 70
     1
102
RTVSPropertyOp16
 70
     1
102
RTVSPropertyOp17
 70
     1
102
RTVSPropertyOp18
 70
     1
102
RTVSPropertyOp19
 70
     1
102
RTVSPropertyOp20
 70
     1
102
RTVSPropertyOp21
 70
     1
102
RTVSPropertyOp22
 70
     1
102
RTVSPropertyOp23
 70
     1
102
RTVSPropertyOp24
 70
     1
102
RTVSPropertyOp25
 70
     1
102
RTVSPropertyOp26
 70
     1
102
RTVSPropertyOp27
 70
     1
102
RTVSPropertyOp28
 70
     1
102
RTVSPropertyOp29
 70
     1
102
RTVSPropertyOp30
 70
     1
102
RTVSPropertyOp31
 70
     1
102
RTVSPropertyOp32
 70
     1
  0
XRECORD
  5
1B4
102
{ACAD_REACTORS
330
1B3
102
}
330
1B3
100
AcDbXrecord
280
     1
102
RTVSPropertyOp0
 70
     1
102
RTVSPropertyOp1
 70
     1
102
RTVSPropertyOp2
 70
     1
102
RTVSPropertyOp3
 70
     1
102
RTVSPropertyOp4
 70
     1
102
RTVSPropertyOp5
 70
     1
102
RTVSPropertyOp6
 70
     1
102
RTVSPropertyOp7
 70
     1
102
RTVSPropertyOp8
 70
     1
102
RTVSPropertyOp9
 70
     1
102
RTVSPropertyOp10
 70
     1
102
RTVSPropertyOp11
 70
     1
102
RTVSPropertyOp12
 70
     1
102
RTVSPropertyOp13
 70
     1
102
RTVSPropertyOp14
 70
     1
102
RTVSPropertyOp15
 70
     1
102
RTVSPropertyOp16
 70
     1
102
RTVSPropertyOp17
 70
     1
102
RTVSPropertyOp18
 70
     1
102
RTVSPropertyOp19
 70
     1
102
RTVSPropertyOp20
 70
     1
102
RTVSPropertyOp21
 70
     1
102
RTVSPropertyOp22
 70
     1
102
RTVSPropertyOp23
 70
     1
102
RTVSPropertyOp24
 70
     1
102
RTVSPropertyOp25
 70
     1
102
RTVSPropertyOp26
 70
     1
102
RTVSPropertyOp27
 70
     1
102
RTVSPropertyOp28
 70
     1
102
RTVSPropertyOp29
 70
     1
102
RTVSPropertyOp30
 70
     1
102
RTVSPropertyOp31
 70
     1
102
RTVSPropertyOp32
 70
     1
  0
XRECORD
  5
1B6
102
{ACAD_REACTORS
330
1B5
102
}
330
1B5
100
AcDbXrecord
280
     1
102
RTVSPropertyOp0
 70
     1
102
RTVSPropertyOp1
 70
     1
102
RTVSPropertyOp2
 70
     1
102
RTVSPropertyOp3
 70
     1
102
RTVSPropertyOp4
 70
     1
102
RTVSPropertyOp5
 70
     1
102
RTVSPropertyOp6
 70
     1
102
RTVSPropertyOp7
 70
     1
102
RTVSPropertyOp8
 70
     1
102
RTVSPropertyOp9
 70
     1
102
RTVSPropertyOp10
 70
     1
102
RTVSPropertyOp11
 70
     1
102
RTVSPropertyOp12
 70
     1
102
RTVSPropertyOp13
 70
     1
102
RTVSPropertyOp14
 70
     1
102
RTVSPropertyOp15
 70
     1
102
RTVSPropertyOp16
 70
     1
102
RTVSPropertyOp17
 70
     1
102
RTVSPropertyOp18
 70
     1
102
RTVSPropertyOp19
 70
     1
102
RTVSPropertyOp20
 70
     1
102
RTVSPropertyOp21
 70
     1
102
RTVSPropertyOp22
 70
     1
102
RTVSPropertyOp23
 70
     1
102
RTVSPropertyOp24
 70
     1
102
RTVSPropertyOp25
 70
     1
102
RTVSPropertyOp26
 70
     1
102
RTVSPropertyOp27
 70
     1
102
RTVSPropertyOp28
 70
     1
102
RTVSPropertyOp29
 70
     1
102
RTVSPropertyOp30
 70
     1
102
RTVSPropertyOp31
 70
     1
102
RTVSPropertyOp32
 70
     1
  0
XRECORD
  5
1B8
102
{ACAD_REACTORS
330
1B7
102
}
330
1B7
100
AcDbXrecord
280
     1
102
RTVSPropertyOp0
 70
     1
102
RTVSPropertyOp1
 70
     1
102
RTVSPropertyOp2
 70
     1
102
RTVSPropertyOp3
 70
     1
102
RTVSPropertyOp4
 70
     1
102
RTVSPropertyOp5
 70
     1
102
RTVSPropertyOp6
 70
     1
102
RTVSPropertyOp7
 70
     1
102
RTVSPropertyOp8
 70
     1
102
RTVSPropertyOp9
 70
     1
102
RTVSPropertyOp10
 70
     1
102
RTVSPropertyOp11
 70
     1
102
RTVSPropertyOp12
 70
     1
102
RTVSPropertyOp13
 70
     1
102
RTVSPropertyOp14
 70
     1
102
RTVSPropertyOp15
 70
     1
102
RTVSPropertyOp16
 70
     1
102
RTVSPropertyOp17
 70
     1
102
RTVSPropertyOp18
 70
     1
102
RTVSPropertyOp19
 70
     1
102
RTVSPropertyOp20
 70
     1
102
RTVSPropertyOp21
 70
     1
102
RTVSPropertyOp22
 70
     1
102
RTVSPropertyOp23
 70
     1
102
RTVSPropertyOp24
 70
     1
102
RTVSPropertyOp25
 70
     1
102
RTVSPropertyOp26
 70
     1
102
RTVSPropertyOp27
 70
     1
102
RTVSPropertyOp28
 70
     1
102
RTVSPropertyOp29
 70
     1
102
RTVSPropertyOp30
 70
     1
102
RTVSPropertyOp31
 70
     1
102
RTVSPropertyOp32
 70
     1
  0
XRECORD
  5
1BA
102
{ACAD_REACTORS
330
1B9
102
}
330
1B9
100
AcDbXrecord
280
     1
102
RTVSPropertyOp0
 70
     1
102
RTVSPropertyOp1
 70
     1
102
RTVSPropertyOp2
 70
     1
102
RTVSPropertyOp3
 70
     1
102
RTVSPropertyOp4
 70
     1
102
RTVSPropertyOp5
 70
     1
102
RTVSPropertyOp6
 70
     1
102
RTVSPropertyOp7
 70
     1
102
RTVSPropertyOp8
 70
     1
102
RTVSPropertyOp9
 70
     1
102
RTVSPropertyOp10
 70
     1
102
RTVSPropertyOp11
 70
     1
102
RTVSPropertyOp12
 70
     1
102
RTVSPropertyOp13
 70
     1
102
RTVSPropertyOp14
 70
     1
102
RTVSPropertyOp15
 70
     1
102
RTVSPropertyOp16
 70
     1
102
RTVSPropertyOp17
 70
     1
102
RTVSPropertyOp18
 70
     1
102
RTVSPropertyOp19
 70
     1
102
RTVSPropertyOp20
 70
     1
102
RTVSPropertyOp21
 70
     1
102
RTVSPropertyOp22
 70
     1
102
RTVSPropertyOp23
 70
     1
102
RTVSPropertyOp24
 70
     1
102
RTVSPropertyOp25
 70
     1
102
RTVSPropertyOp26
 70
     1
102
RTVSPropertyOp27
 70
     1
102
RTVSPropertyOp28
 70
     1
102
RTVSPropertyOp29
 70
     1
102
RTVSPropertyOp30
 70
     1
102
RTVSPropertyOp31
 70
     1
102
RTVSPropertyOp32
 70
     1
  0
XRECORD
  5
1CE
102
{ACAD_REACTORS
330
1CD
102
}
330
1CD
100
AcDbXrecord
280
     1
102
RTVSPropertyOp0
 70
     1
102
RTVSPropertyOp1
 70
     1
102
RTVSPropertyOp2
 70
     1
102
RTVSPropertyOp3
 70
     1
102
RTVSPropertyOp4
 70
     1
102
RTVSPropertyOp5
 70
     1
102
RTVSPropertyOp6
 70
     1
102
RTVSPropertyOp7
 70
     1
102
RTVSPropertyOp8
 70
     1
102
RTVSPropertyOp9
 70
     1
102
RTVSPropertyOp10
 70
     1
102
RTVSPropertyOp11
 70
     1
102
RTVSPropertyOp12
 70
     1
102
RTVSPropertyOp13
 70
     1
102
RTVSPropertyOp14
 70
     1
102
RTVSPropertyOp15
 70
     1
102
RTVSPropertyOp16
 70
     1
102
RTVSPropertyOp17
 70
     1
102
RTVSPropertyOp18
 70
     1
102
RTVSPropertyOp19
 70
     1
102
RTVSPropertyOp20
 70
     1
102
RTVSPropertyOp21
 70
     1
102
RTVSPropertyOp22
 70
     1
102
RTVSPropertyOp23
 70
     1
102
RTVSPropertyOp24
 70
     1
102
RTVSPropertyOp25
 70
     1
102
RTVSPropertyOp26
 70
     1
102
RTVSPropertyOp27
 70
     1
102
RTVSPropertyOp28
 70
     1
102
RTVSPropertyOp29
 70
     1
102
RTVSPropertyOp30
 70
     1
102
RTVSPropertyOp31
 70
     1
102
RTVSPropertyOp32
 70
     1
  0
XRECORD
  5
1C4
102
{ACAD_REACTORS
330
1C3
102
}
330
1C3
100
AcDbXrecord
280
     1
102
RTVSPropertyOp0
 70
     1
102
RTVSPropertyOp1
 70
     1
102
RTVSPropertyOp2
 70
     1
102
RTVSPropertyOp3
 70
     1
102
RTVSPropertyOp4
 70
     1
102
RTVSPropertyOp5
 70
     1
102
RTVSPropertyOp6
 70
     1
102
RTVSPropertyOp7
 70
     1
102
RTVSPropertyOp8
 70
     1
102
RTVSPropertyOp9
 70
     1
102
RTVSPropertyOp10
 70
     1
102
RTVSPropertyOp11
 70
     1
102
RTVSPropertyOp12
 70
     1
102
RTVSPropertyOp13
 70
     1
102
RTVSPropertyOp14
 70
     1
102
RTVSPropertyOp15
 70
     1
102
RTVSPropertyOp16
 70
     1
102
RTVSPropertyOp17
 70
     1
102
RTVSPropertyOp18
 70
     1
102
RTVSPropertyOp19
 70
     1
102
RTVSPropertyOp20
 70
     1
102
RTVSPropertyOp21
 70
     1
102
RTVSPropertyOp22
 70
     1
102
RTVSPropertyOp23
 70
     1
102
RTVSPropertyOp24
 70
     1
102
RTVSPropertyOp25
 70
     1
102
RTVSPropertyOp26
 70
     1
102
RTVSPropertyOp27
 70
     1
102
RTVSPropertyOp28
 70
     1
102
RTVSPropertyOp29
 70
     1
102
RTVSPropertyOp30
 70
     1
102
RTVSPropertyOp31
 70
     1
102
RTVSPropertyOp32
 70
     1
  0
XRECORD
  5
1CC
102
{ACAD_REACTORS
330
1CB
102
}
330
1CB
100
AcDbXrecord
280
     1
102
RTVSPropertyOp0
 70
     1
102
RTVSPropertyOp1
 70
     1
102
RTVSPropertyOp2
 70
     1
102
RTVSPropertyOp3
 70
     1
102
RTVSPropertyOp4
 70
     1
102
RTVSPropertyOp5
 70
     1
102
RTVSPropertyOp6
 70
     1
102
RTVSPropertyOp7
 70
     1
102
RTVSPropertyOp8
 70
     1
102
RTVSPropertyOp9
 70
     1
102
RTVSPropertyOp10
 70
     1
102
RTVSPropertyOp11
 70
     1
102
RTVSPropertyOp12
 70
     1
102
RTVSPropertyOp13
 70
     1
102
RTVSPropertyOp14
 70
     1
102
RTVSPropertyOp15
 70
     1
102
RTVSPropertyOp16
 70
     1
102
RTVSPropertyOp17
 70
     1
102
RTVSPropertyOp18
 70
     1
102
RTVSPropertyOp19
 70
     1
102
RTVSPropertyOp20
 70
     1
102
RTVSPropertyOp21
 70
     1
102
RTVSPropertyOp22
 70
     1
102
RTVSPropertyOp23
 70
     1
102
RTVSPropertyOp24
 70
     1
102
RTVSPropertyOp25
 70
     1
102
RTVSPropertyOp26
 70
     1
102
RTVSPropertyOp27
 70
     1
102
RTVSPropertyOp28
 70
     1
102
RTVSPropertyOp29
 70
     1
102
RTVSPropertyOp30
 70
     1
102
RTVSPropertyOp31
 70
     1
102
RTVSPropertyOp32
 70
     1
  0
ENDSEC
  0
EOF
